  0
SECTION
  2
HEADER
  9
$ACADVER
  1
AC1021
  9
$ACADMAINTVER
 70
     1
  9
$DWGCODEPAGE
  3
ANSI_1252
  9
$LASTSAVEDBY
  1
jonathanr
  9
$INSBASE
 10
0.0
 20
0.0
 30
0.0
  9
$EXTMIN
 10
-97.65271077841944
 20
-224.5694627706032
 30
0.0
  9
$EXTMAX
 10
9.373410471580557
 20
-141.8499227706031
 30
0.0
  9
$LIMMIN
 10
0.0
 20
0.0
  9
$LIMMAX
 10
12.0
 20
9.0
  9
$ORTHOMODE
 70
     0
  9
$REGENMODE
 70
     1
  9
$FILLMODE
 70
     1
  9
$QTEXTMODE
 70
     0
  9
$MIRRTEXT
 70
     1
  9
$LTSCALE
 40
1.0
  9
$ATTMODE
 70
     1
  9
$TEXTSIZE
 40
0.1
  9
$TRACEWID
 40
0.05
  9
$TEXTSTYLE
  7
view
  9
$CLAYER
  8
Dim
  9
$CELTYPE
  6
ByLayer
  9
$CECOLOR
 62
   256
  9
$CELTSCALE
 40
1.0
  9
$DISPSILH
 70
     0
  9
$DIMSCALE
 40
8.0
  9
$DIMASZ
 40
0.13
  9
$DIMEXO
 40
0.055
  9
$DIMDLI
 40
0.38
  9
$DIMRND
 40
0.0
  9
$DIMDLE
 40
0.0
  9
$DIMEXE
 40
0.055
  9
$DIMTP
 40
0.0
  9
$DIMTM
 40
0.0
  9
$DIMTXT
 40
0.1
  9
$DIMCEN
 40
0.09
  9
$DIMTSZ
 40
0.0
  9
$DIMTOL
 70
     0
  9
$DIMLIM
 70
     0
  9
$DIMTIH
 70
     1
  9
$DIMTOH
 70
     1
  9
$DIMSE1
 70
     0
  9
$DIMSE2
 70
     0
  9
$DIMTAD
 70
     0
  9
$DIMZIN
 70
     0
  9
$DIMBLK
  1

  9
$DIMASO
 70
     1
  9
$DIMSHO
 70
     1
  9
$DIMPOST
  1
"
  9
$DIMAPOST
  1

  9
$DIMALT
 70
     0
  9
$DIMALTD
 70
     2
  9
$DIMALTF
 40
25.4
  9
$DIMLFAC
 40
1.0
  9
$DIMTOFL
 70
     0
  9
$DIMTVP
 40
0.0
  9
$DIMTIX
 70
     0
  9
$DIMSOXD
 70
     0
  9
$DIMSAH
 70
     0
  9
$DIMBLK1
  1

  9
$DIMBLK2
  1

  9
$DIMSTYLE
  2
Standard
  9
$DIMCLRD
 70
     0
  9
$DIMCLRE
 70
     0
  9
$DIMCLRT
 70
     0
  9
$DIMTFAC
 40
1.0
  9
$DIMGAP
 40
0.09
  9
$DIMJUST
 70
     0
  9
$DIMSD1
 70
     0
  9
$DIMSD2
 70
     0
  9
$DIMTOLJ
 70
     1
  9
$DIMTZIN
 70
     0
  9
$DIMALTZ
 70
     0
  9
$DIMALTTZ
 70
     0
  9
$DIMUPT
 70
     1
  9
$DIMDEC
 70
     4
  9
$DIMTDEC
 70
     4
  9
$DIMALTU
 70
     2
  9
$DIMALTTD
 70
     2
  9
$DIMTXSTY
  7
Standard
  9
$DIMAUNIT
 70
     0
  9
$DIMADEC
 70
     0
  9
$DIMALTRND
 40
0.0
  9
$DIMAZIN
 70
     1
  9
$DIMDSEP
 70
    46
  9
$DIMATFIT
 70
     3
  9
$DIMFRAC
 70
     0
  9
$DIMLDRBLK
  1

  9
$DIMLUNIT
 70
     5
  9
$DIMLWD
 70
    -2
  9
$DIMLWE
 70
    -2
  9
$DIMTMOVE
 70
     0
  9
$DIMFXL
 40
1.0
  9
$DIMFXLON
 70
     0
  9
$DIMJOGANG
 40
0.7853981633974483
  9
$DIMTFILL
 70
     0
  9
$DIMTFILLCLR
 70
     0
  9
$DIMARCSYM
 70
     0
  9
$DIMLTYPE
  6

  9
$DIMLTEX1
  6

  9
$DIMLTEX2
  6

  9
$LUNITS
 70
     2
  9
$LUPREC
 70
     4
  9
$SKETCHINC
 40
0.1
  9
$FILLETRAD
 40
0.5
  9
$AUNITS
 70
     0
  9
$AUPREC
 70
     0
  9
$MENU
  1
.
  9
$ELEVATION
 40
0.0
  9
$PELEVATION
 40
0.0
  9
$THICKNESS
 40
0.0
  9
$LIMCHECK
 70
     0
  9
$CHAMFERA
 40
0.5
  9
$CHAMFERB
 40
0.5
  9
$CHAMFERC
 40
1.0
  9
$CHAMFERD
 40
0.0
  9
$SKPOLY
 70
     0
  9
$TDCREATE
 40
2453710.441129607
  9
$TDUCREATE
 40
2453710.649462940
  9
$TDUPDATE
 40
2455637.645061574
  9
$TDUUPDATE
 40
2455637.853394907
  9
$TDINDWG
 40
0.6593924306
  9
$TDUSRTIMER
 40
0.6593924306
  9
$USRTIMER
 70
     1
  9
$ANGBASE
 50
0.0
  9
$ANGDIR
 70
     0
  9
$PDMODE
 70
     0
  9
$PDSIZE
 40
0.0
  9
$PLINEWID
 40
0.0
  9
$SPLFRAME
 70
     0
  9
$SPLINETYPE
 70
     6
  9
$SPLINESEGS
 70
     8
  9
$HANDSEED
  5
16C6E
  9
$SURFTAB1
 70
     6
  9
$SURFTAB2
 70
     6
  9
$SURFTYPE
 70
     6
  9
$SURFU
 70
     6
  9
$SURFV
 70
     6
  9
$UCSBASE
  2

  9
$UCSNAME
  2

  9
$UCSORG
 10
0.0
 20
0.0
 30
0.0
  9
$UCSXDIR
 10
1.0
 20
0.0
 30
0.0
  9
$UCSYDIR
 10
0.0
 20
1.0
 30
0.0
  9
$UCSORTHOREF
  2

  9
$UCSORTHOVIEW
 70
     0
  9
$UCSORGTOP
 10
0.0
 20
0.0
 30
0.0
  9
$UCSORGBOTTOM
 10
0.0
 20
0.0
 30
0.0
  9
$UCSORGLEFT
 10
0.0
 20
0.0
 30
0.0
  9
$UCSORGRIGHT
 10
0.0
 20
0.0
 30
0.0
  9
$UCSORGFRONT
 10
0.0
 20
0.0
 30
0.0
  9
$UCSORGBACK
 10
0.0
 20
0.0
 30
0.0
  9
$PUCSBASE
  2

  9
$PUCSNAME
  2

  9
$PUCSORG
 10
0.0
 20
0.0
 30
0.0
  9
$PUCSXDIR
 10
1.0
 20
0.0
 30
0.0
  9
$PUCSYDIR
 10
0.0
 20
1.0
 30
0.0
  9
$PUCSORTHOREF
  2

  9
$PUCSORTHOVIEW
 70
     0
  9
$PUCSORGTOP
 10
0.0
 20
0.0
 30
0.0
  9
$PUCSORGBOTTOM
 10
0.0
 20
0.0
 30
0.0
  9
$PUCSORGLEFT
 10
0.0
 20
0.0
 30
0.0
  9
$PUCSORGRIGHT
 10
0.0
 20
0.0
 30
0.0
  9
$PUCSORGFRONT
 10
0.0
 20
0.0
 30
0.0
  9
$PUCSORGBACK
 10
0.0
 20
0.0
 30
0.0
  9
$USERI1
 70
     0
  9
$USERI2
 70
     0
  9
$USERI3
 70
     0
  9
$USERI4
 70
     0
  9
$USERI5
 70
     0
  9
$USERR1
 40
0.0
  9
$USERR2
 40
0.0
  9
$USERR3
 40
0.0
  9
$USERR4
 40
0.0
  9
$USERR5
 40
0.0
  9
$WORLDVIEW
 70
     1
  9
$SHADEDGE
 70
     3
  9
$SHADEDIF
 70
    70
  9
$TILEMODE
 70
     1
  9
$MAXACTVP
 70
    64
  9
$PINSBASE
 10
0.0
 20
0.0
 30
0.0
  9
$PLIMCHECK
 70
     0
  9
$PEXTMIN
 10
1.060083400546096
 20
0.8100833479813704
 30
0.0
  9
$PEXTMAX
 10
9.540750604914867
 20
7.290750131832332
 30
0.0
  9
$PLIMMIN
 10
0.0
 20
0.0
  9
$PLIMMAX
 10
12.0
 20
9.0
  9
$UNITMODE
 70
     0
  9
$VISRETAIN
 70
     1
  9
$PLINEGEN
 70
     0
  9
$PSLTSCALE
 70
     1
  9
$TREEDEPTH
 70
  3020
  9
$CMLSTYLE
  2
Standard
  9
$CMLJUST
 70
     0
  9
$CMLSCALE
 40
1.0
  9
$PROXYGRAPHICS
 70
     1
  9
$MEASUREMENT
 70
     0
  9
$CELWEIGHT
370
    -1
  9
$ENDCAPS
280
     0
  9
$JOINSTYLE
280
     0
  9
$LWDISPLAY
290
     0
  9
$INSUNITS
 70
     1
  9
$HYPERLINKBASE
  1

  9
$STYLESHEET
  1

  9
$XEDIT
290
     1
  9
$CEPSNTYPE
380
     0
  9
$PSTYLEMODE
290
     1
  9
$FINGERPRINTGUID
  2
{30A20DD2-64FF-4C94-AB29-04C03449F9A0}
  9
$VERSIONGUID
  2
{42E6D62B-4756-400A-BAED-FB338F974540}
  9
$EXTNAMES
290
     1
  9
$PSVPSCALE
 40
0.0
  9
$OLESTARTUP
290
     0
  9
$SORTENTS
280
   127
  9
$INDEXCTL
280
     0
  9
$HIDETEXT
280
     0
  9
$XCLIPFRAME
290
     0
  9
$HALOGAP
280
     0
  9
$OBSCOLOR
 70
   257
  9
$OBSLTYPE
280
     0
  9
$INTERSECTIONDISPLAY
280
     0
  9
$INTERSECTIONCOLOR
 70
   257
  9
$DIMASSOC
280
     1
  9
$PROJECTNAME
  1

  9
$CAMERADISPLAY
290
     0
  9
$LENSLENGTH
 40
50.0
  9
$CAMERAHEIGHT
 40
0.0
  9
$STEPSPERSEC
 40
2.0
  9
$STEPSIZE
 40
6.0
  9
$3DDWFPREC
 40
2.0
  9
$PSOLWIDTH
 40
0.25
  9
$PSOLHEIGHT
 40
4.0
  9
$LOFTANG1
 40
1.570796326794896
  9
$LOFTANG2
 40
1.570796326794896
  9
$LOFTMAG1
 40
0.0
  9
$LOFTMAG2
 40
0.0
  9
$LOFTPARAM
 70
     7
  9
$LOFTNORMALS
280
     1
  9
$LATITUDE
 40
37.795
  9
$LONGITUDE
 40
-122.394
  9
$NORTHDIRECTION
 40
0.0
  9
$TIMEZONE
 70
 -8000
  9
$LIGHTGLYPHDISPLAY
280
     1
  9
$TILEMODELIGHTSYNCH
280
     1
  9
$CMATERIAL
347
6602
  9
$SOLIDHIST
280
     1
  9
$SHOWHIST
280
     1
  9
$DWFFRAME
280
     2
  9
$DGNFRAME
280
     0
  9
$REALWORLDSCALE
290
     1
  9
$INTERFERECOLOR
 62
     1
  9
$INTERFEREOBJVS
345
660F
  9
$INTERFEREVPVS
346
660C
  9
$CSHADOW
280
     0
  9
$SHADOWPLANELOCATION
 40
0.0
  0
ENDSEC
  0
SECTION
  2
CLASSES
  0
CLASS
  1
ACDBDICTIONARYWDFLT
  2
AcDbDictionaryWithDefault
  3
ObjectDBX Classes
 90
        0
 91
        1
280
     0
281
     0
  0
CLASS
  1
MATERIAL
  2
AcDbMaterial
  3
ObjectDBX Classes
 90
     1024
 91
        3
280
     0
281
     0
  0
CLASS
  1
VISUALSTYLE
  2
AcDbVisualStyle
  3
ObjectDBX Classes
 90
     4095
 91
       16
280
     0
281
     0
  0
CLASS
  1
TABLESTYLE
  2
AcDbTableStyle
  3
ObjectDBX Classes
 90
     4095
 91
        1
280
     0
281
     0
  0
CLASS
  1
DICTIONARYVAR
  2
AcDbDictionaryVar
  3
ObjectDBX Classes
 90
        0
 91
        1
280
     0
281
     0
  0
CLASS
  1
IMAGEDEF
  2
AcDbRasterImageDef
  3
ISM
 90
        0
 91
        1
280
     0
281
     0
  0
CLASS
  1
RASTERVARIABLES
  2
AcDbRasterVariables
  3
ISM
 90
        0
 91
        1
280
     0
281
     0
  0
CLASS
  1
IMAGEDEF_REACTOR
  2
AcDbRasterImageDefReactor
  3
ISM
 90
        1
 91
        1
280
     0
281
     0
  0
CLASS
  1
IMAGE
  2
AcDbRasterImage
  3
ISM
 90
     2175
 91
        1
280
     0
281
     1
  0
ENDSEC
  0
SECTION
  2
TABLES
  0
TABLE
  2
VPORT
  5
8
330
0
100
AcDbSymbolTable
 70
     1
  0
VPORT
  5
65FF
330
8
100
AcDbSymbolTableRecord
100
AcDbViewportTableRecord
  2
*Active
 70
     0
 10
0.0
 20
0.0
 11
1.0
 21
1.0
 12
-37.91421124573047
 22
-183.2113669935775
 13
0.0
 23
0.0
 14
0.5
 24
0.5
 15
0.5
 25
0.5
 16
0.0
 26
0.0
 36
1.0
 17
0.0
 27
0.0
 37
0.0
 40
83.33879590672172
 41
1.858218318695106
 42
50.0
 43
0.0
 44
0.0
 50
0.0
 51
0.0
 71
     0
 72
   100
 73
     1
 74
     2
 75
     0
 76
     0
 77
     0
 78
     0
281
     0
 65
     1
110
0.0
120
0.0
130
0.0
111
1.0
121
0.0
131
0.0
112
0.0
122
1.0
132
0.0
 79
     0
146
0.0
348
660B
 60
     3
 61
     5
292
     1
282
     1
141
0.0
142
0.0
 63
   250
421
  3355443
  0
ENDTAB
  0
TABLE
  2
LTYPE
  5
5
330
0
100
AcDbSymbolTable
 70
     1
  0
LTYPE
  5
14
330
5
100
AcDbSymbolTableRecord
100
AcDbLinetypeTableRecord
  2
ByBlock
 70
     0
  3

 72
    65
 73
     0
 40
0.0
  0
LTYPE
  5
15
330
5
100
AcDbSymbolTableRecord
100
AcDbLinetypeTableRecord
  2
ByLayer
 70
     0
  3

 72
    65
 73
     0
 40
0.0
  0
LTYPE
  5
16
330
5
100
AcDbSymbolTableRecord
100
AcDbLinetypeTableRecord
  2
Continuous
 70
     0
  3
Solid line
 72
    65
 73
     0
 40
0.0
  0
ENDTAB
  0
TABLE
  2
LAYER
  5
2
330
0
100
AcDbSymbolTable
 70
     8
  0
LAYER
  5
10
330
2
100
AcDbSymbolTableRecord
100
AcDbLayerTableRecord
  2
0
 70
     0
 62
     7
  6
Continuous
370
    -3
390
F
347
6604
  0
LAYER
  5
64
330
2
100
AcDbSymbolTableRecord
100
AcDbLayerTableRecord
  2
Title Block
 70
     0
 62
     7
  6
Continuous
370
    -3
390
F
347
6604
  0
LAYER
  5
66
330
2
100
AcDbSymbolTableRecord
100
AcDbLayerTableRecord
  2
Text
 70
     0
 62
     7
  6
Continuous
370
    -3
390
F
347
6604
  0
LAYER
  5
67
330
2
100
AcDbSymbolTableRecord
100
AcDbLayerTableRecord
  2
Dim
 70
     0
 62
     1
  6
Continuous
370
    -3
390
F
347
6604
  0
LAYER
  5
1EBD
330
2
100
AcDbSymbolTableRecord
100
AcDbLayerTableRecord
  2
Board
 70
     0
 62
     7
  6
Continuous
370
    -3
390
F
347
6604
  0
LAYER
  5
1ED7
330
2
100
AcDbSymbolTableRecord
100
AcDbLayerTableRecord
  2
Defpoints
 70
     0
 62
     7
  6
Continuous
290
     0
370
    -3
390
F
347
6604
  0
LAYER
  5
2A7F
330
2
100
AcDbSymbolTableRecord
100
AcDbLayerTableRecord
  2
Key
 70
     0
 62
     7
  6
Continuous
370
    -3
390
F
347
6604
  0
LAYER
  5
74DB
330
2
100
AcDbSymbolTableRecord
100
AcDbLayerTableRecord
  2
Visible (ANSI)
 70
     0
 62
     7
  6
Continuous
370
    50
390
F
347
6604
  0
ENDTAB
  0
TABLE
  2
STYLE
  5
3
330
0
100
AcDbSymbolTable
 70
     7
  0
STYLE
  5
11
330
3
100
AcDbSymbolTableRecord
100
AcDbTextStyleTableRecord
  2
Standard
 70
     0
 40
0.0
 41
1.0
 50
0.0
 71
     0
 42
0.2
  3
txt
  4

  0
STYLE
  5
6A
330
3
100
AcDbSymbolTableRecord
100
AcDbTextStyleTableRecord
  2
Roman
 70
     0
 40
0.0
 41
1.0
 50
0.0
 71
     0
 42
0.065
  3
romans
  4

  0
STYLE
  5
2274
330
3
100
AcDbSymbolTableRecord
100
AcDbTextStyleTableRecord
  2
view
 70
     0
 40
0.1
 41
1.0
 50
0.0
 71
     0
 42
0.1
  3
romans.shx
  4

  0
STYLE
  5
6585
330
3
100
AcDbSymbolTableRecord
100
AcDbTextStyleTableRecord
  2
Notes
 70
     0
 40
0.08
 41
1.0
 50
0.0
 71
     0
 42
0.08
  3
romans.shx
  4

  0
STYLE
  5
6586
330
3
100
AcDbSymbolTableRecord
100
AcDbTextStyleTableRecord
  2
Logo
 70
     0
 40
0.07
 41
1.0
 50
0.0
 71
     0
 42
0.07
  3
verdana.TTF
  4

1001
ACAD
1000
Verdana
1071
       34
  0
STYLE
  5
6587
330
3
100
AcDbSymbolTableRecord
100
AcDbTextStyleTableRecord
  2
Title
 70
     0
 40
0.07
 41
1.0
 50
0.0
 71
     0
 42
0.07
  3
COURBD.TTF
  4

1001
ACAD
1000
Courier New
1071
 33554481
  0
STYLE
  5
6622
330
3
100
AcDbSymbolTableRecord
100
AcDbTextStyleTableRecord
  2
Simplex for  LLV
 70
     0
 40
0.0
 41
1.0
 50
0.0
 71
     0
 42
1.0
  3
romans.shx
  4

  0
ENDTAB
  0
TABLE
  2
VIEW
  5
6
330
0
100
AcDbSymbolTable
 70
     0
  0
ENDTAB
  0
TABLE
  2
UCS
  5
7
330
0
100
AcDbSymbolTable
 70
     0
  0
ENDTAB
  0
TABLE
  2
APPID
  5
9
330
0
100
AcDbSymbolTable
 70
     4
  0
APPID
  5
12
330
9
100
AcDbSymbolTableRecord
100
AcDbRegAppTableRecord
  2
ACAD
 70
     0
  0
APPID
  5
1EB5
330
9
100
AcDbSymbolTableRecord
100
AcDbRegAppTableRecord
  2
DCO15
 70
     0
  0
APPID
  5
6BAD
330
9
100
AcDbSymbolTableRecord
100
AcDbRegAppTableRecord
  2
ACAD_PSEXT
 70
     0
  0
APPID
  5
7332
330
9
100
AcDbSymbolTableRecord
100
AcDbRegAppTableRecord
  2
ACAD_EXEMPT_FROM_CAD_STANDARDS
 70
     0
  0
ENDTAB
  0
TABLE
  2
DIMSTYLE
  5
A
330
0
100
AcDbSymbolTable
 70
     1
100
AcDbDimStyleTable
 71
     1
340
27
  0
DIMSTYLE
105
27
102
{ACAD_REACTORS
330
15375
330
16B69
330
16B6A
330
16B99
330
16B9A
330
16B9B
102
}
330
A
100
AcDbSymbolTableRecord
100
AcDbDimStyleTableRecord
  2
Standard
 70
     0
  3
"
 40
8.0
 41
0.13
 42
0.055
 44
0.055
 79
     1
140
0.1
277
     5
288
     1
340
11
  0
ENDTAB
  0
TABLE
  2
BLOCK_RECORD
  5
1
330
0
100
AcDbSymbolTable
 70
     7
  0
BLOCK_RECORD
  5
1F
330
1
100
AcDbSymbolTableRecord
100
AcDbBlockTableRecord
  2
*Model_Space
340
22
 70
     0
280
     1
281
     0
  0
BLOCK_RECORD
  5
1B
330
1
100
AcDbSymbolTableRecord
100
AcDbBlockTableRecord
  2
*Paper_Space
340
1E
 70
     0
280
     1
281
     0
  0
BLOCK_RECORD
  5
23
330
1
100
AcDbSymbolTableRecord
100
AcDbBlockTableRecord
  2
*Paper_Space0
340
26
 70
     0
280
     1
281
     0
  0
BLOCK_RECORD
  5
15389
330
1
100
AcDbSymbolTableRecord
100
AcDbBlockTableRecord
  2
*D1
340
0
 70
     0
280
     1
281
     0
  0
BLOCK_RECORD
  5
16B6B
330
1
100
AcDbSymbolTableRecord
100
AcDbBlockTableRecord
  2
*D2
340
0
 70
     0
280
     1
281
     0
  0
BLOCK_RECORD
  5
16B78
330
1
100
AcDbSymbolTableRecord
100
AcDbBlockTableRecord
  2
*D3
340
0
 70
     0
280
     1
281
     0
  0
BLOCK_RECORD
  5
16B9C
330
1
100
AcDbSymbolTableRecord
100
AcDbBlockTableRecord
  2
*D4
340
0
 70
     0
280
     1
281
     0
  0
BLOCK_RECORD
  5
16BA9
330
1
100
AcDbSymbolTableRecord
100
AcDbBlockTableRecord
  2
*D5
340
0
 70
     0
280
     1
281
     0
  0
BLOCK_RECORD
  5
16BB6
330
1
100
AcDbSymbolTableRecord
100
AcDbBlockTableRecord
  2
*D6
340
0
 70
     0
280
     1
281
     0
  0
ENDTAB
  0
ENDSEC
  0
SECTION
  2
BLOCKS
  0
BLOCK
  5
20
330
1F
100
AcDbEntity
  8
0
100
AcDbBlockBegin
  2
*Model_Space
 70
     0
 10
0.0
 20
0.0
 30
0.0
  3
*Model_Space
  1

  0
ENDBLK
  5
21
330
1F
100
AcDbEntity
  8
0
100
AcDbBlockEnd
  0
BLOCK
  5
1C
330
1B
100
AcDbEntity
 67
     1
  8
0
100
AcDbBlockBegin
  2
*Paper_Space
 70
     0
 10
0.0
 20
0.0
 30
0.0
  3
*Paper_Space
  1

  0
ENDBLK
  5
1D
330
1B
100
AcDbEntity
 67
     1
  8
0
100
AcDbBlockEnd
  0
BLOCK
  5
24
330
23
100
AcDbEntity
 67
     1
  8
0
100
AcDbBlockBegin
  2
*Paper_Space0
 70
     0
 10
0.0
 20
0.0
 30
0.0
  3
*Paper_Space0
  1

  0
ENDBLK
  5
25
330
23
100
AcDbEntity
 67
     1
  8
0
100
AcDbBlockEnd
  0
BLOCK
  5
15393
330
15389
100
AcDbEntity
  8
0
100
AcDbBlockBegin
  2
*D1
 70
     1
 10
0.0
 20
0.0
 30
0.0
  3
*D1
  1

  0
LINE
  5
16C43
330
15389
100
AcDbEntity
  8
Dim
 62
     0
370
    -2
100
AcDbLine
 10
-69.06674614285835
 20
-196.8052199407809
 30
0.0
 11
-63.9405252537858
 21
-196.8052199407809
 31
0.0
  0
LINE
  5
16C44
330
15389
100
AcDbEntity
  8
Dim
 62
     0
370
    -2
100
AcDbLine
 10
-64.3805252537858
 20
-201.988219383013
 30
0.0
 11
-64.3805252537858
 21
-201.6918307121124
 31
0.0
  0
LINE
  5
16C45
330
15389
100
AcDbEntity
  8
Dim
 62
     0
370
    -2
100
AcDbLine
 10
-64.3805252537858
 20
-197.8452199407809
 30
0.0
 11
-64.3805252537858
 21
-198.1184973787791
 31
0.0
  0
SOLID
  5
16C46
330
15389
100
AcDbEntity
  8
Dim
 62
     0
100
AcDbTrace
 10
-64.55385858711913
 20
-201.988219383013
 30
0.0
 11
-64.20719192045247
 21
-201.988219383013
 31
0.0
 12
-64.3805252537858
 22
-203.028219383013
 32
0.0
 13
-64.3805252537858
 23
-203.028219383013
 33
0.0
  0
SOLID
  5
16C47
330
15389
100
AcDbEntity
  8
Dim
 62
     0
100
AcDbTrace
 10
-64.55385858711913
 20
-197.8452199407809
 30
0.0
 11
-64.20719192045247
 21
-197.8452199407809
 31
0.0
 12
-64.3805252537858
 22
-196.8052199407809
 32
0.0
 13
-64.3805252537858
 23
-196.8052199407809
 33
0.0
  0
MTEXT
  5
16C48
330
15389
100
AcDbEntity
  8
Dim
 62
     0
100
AcDbMText
 10
-64.38052525378577
 20
-199.9051640454458
 30
0.0
 40
0.8
 41
0.0
 46
0.0
 71
     5
 72
     1
  1
\A1;15" MINIMUM\P(PARCEL LOCKER)
 73
     1
 44
1.0
  0
POINT
  5
16C49
330
15389
100
AcDbEntity
  8
Defpoints
 62
     0
100
AcDbPoint
 10
-64.38052525378577
 20
-203.028219383013
 30
0.0
  0
POINT
  5
16C4A
330
15389
100
AcDbEntity
  8
Defpoints
 62
     0
100
AcDbPoint
 10
-69.50674614285834
 20
-196.8052199407809
 30
0.0
  0
POINT
  5
16C4B
330
15389
100
AcDbEntity
  8
Defpoints
 62
     0
100
AcDbPoint
 10
-64.3805252537858
 20
-196.8052199407809
 30
0.0
  0
ENDBLK
  5
15394
330
15389
100
AcDbEntity
  8
0
100
AcDbBlockEnd
  0
BLOCK
  5
16B76
330
16B6B
100
AcDbEntity
  8
0
100
AcDbBlockBegin
  2
*D2
 70
     1
 10
0.0
 20
0.0
 30
0.0
  3
*D2
  1

  0
LINE
  5
16C13
330
16B6B
100
AcDbEntity
  8
Dim
 62
     0
370
    -2
100
AcDbLine
 10
-6.537848398028145
 20
-161.4309675707213
 30
0.0
 11
-6.537848398028145
 21
-155.72224511762
 31
0.0
  0
LINE
  5
16C14
330
16B6B
100
AcDbEntity
  8
Dim
 62
     0
370
    -2
100
AcDbLine
 10
-23.29091139014676
 20
-160.6219659911083
 30
0.0
 11
-23.29091139014676
 21
-155.72224511762
 31
0.0
  0
LINE
  5
16C15
330
16B6B
100
AcDbEntity
  8
Dim
 62
     0
370
    -2
100
AcDbLine
 10
-7.577848398028145
 20
-156.16224511762
 30
0.0
 11
-10.12492451245382
 21
-156.16224511762
 31
0.0
  0
LINE
  5
16C16
330
16B6B
100
AcDbEntity
  8
Dim
 62
     0
370
    -2
100
AcDbLine
 10
-22.25091139014676
 20
-156.16224511762
 30
0.0
 11
-21.43159117912048
 21
-156.16224511762
 31
0.0
  0
SOLID
  5
16C17
330
16B6B
100
AcDbEntity
  8
Dim
 62
     0
100
AcDbTrace
 10
-7.577848398028145
 20
-155.9889117842867
 30
0.0
 11
-7.577848398028145
 21
-156.3355784509534
 31
0.0
 12
-6.537848398028145
 22
-156.16224511762
 32
0.0
 13
-6.537848398028145
 23
-156.16224511762
 33
0.0
  0
SOLID
  5
16C18
330
16B6B
100
AcDbEntity
  8
Dim
 62
     0
100
AcDbTrace
 10
-22.25091139014676
 20
-155.9889117842867
 30
0.0
 11
-22.25091139014676
 21
-156.3355784509534
 31
0.0
 12
-23.29091139014676
 22
-156.16224511762
 32
0.0
 13
-23.29091139014676
 23
-156.16224511762
 33
0.0
  0
MTEXT
  5
16C19
330
16B6B
100
AcDbEntity
  8
Dim
 62
     0
100
AcDbMText
 10
-15.77825784578715
 20
-156.16224511762
 30
0.0
 40
0.8
 41
0.0
 46
0.0
 71
     5
 72
     1
  1
\A1;16{\H1.000000x;\S3/4;}" MINIMUM\PROUGH OPENING\PDEPTH
 73
     1
 44
1.0
  0
POINT
  5
16C1A
330
16B6B
100
AcDbEntity
  8
Defpoints
 62
     0
100
AcDbPoint
 10
-6.537848398028145
 20
-161.8709675707213
 30
0.0
  0
POINT
  5
16C1B
330
16B6B
100
AcDbEntity
  8
Defpoints
 62
     0
100
AcDbPoint
 10
-23.29091139014676
 20
-161.0619659911083
 30
0.0
  0
POINT
  5
16C1C
330
16B6B
100
AcDbEntity
  8
Defpoints
 62
     0
100
AcDbPoint
 10
-23.29091139014676
 20
-156.16224511762
 30
0.0
  0
ENDBLK
  5
16B77
330
16B6B
100
AcDbEntity
  8
0
100
AcDbBlockEnd
  0
BLOCK
  5
16B83
330
16B78
100
AcDbEntity
  8
0
100
AcDbBlockBegin
  2
*D3
 70
     1
 10
0.0
 20
0.0
 30
0.0
  3
*D3
  1

  0
LINE
  5
16C1D
330
16B78
100
AcDbEntity
  8
Dim
 62
     0
370
    -2
100
AcDbLine
 10
-20.47119598465281
 20
-161.4768399198051
 30
0.0
 11
-0.0802725310032674
 21
-161.4768399198051
 31
0.0
  0
LINE
  5
16C1E
330
16B78
100
AcDbEntity
  8
Dim
 62
     0
370
    -2
100
AcDbLine
 10
-20.46602925664132
 20
-178.7252945211867
 30
0.0
 11
-0.0802725310032712
 21
-178.7252945211867
 31
0.0
  0
LINE
  5
16C1F
330
16B78
100
AcDbEntity
  8
Dim
 62
     0
370
    -2
100
AcDbLine
 10
-0.5202725310032692
 20
-162.5168399198051
 30
0.0
 11
-0.5202725310032702
 21
-167.3651873823278
 31
0.0
  0
LINE
  5
16C20
330
16B78
100
AcDbEntity
  8
Dim
 62
     0
370
    -2
100
AcDbLine
 10
-0.5202725310032724
 20
-177.6852945211867
 30
0.0
 11
-0.5202725310032711
 21
-171.7385207156612
 31
0.0
  0
SOLID
  5
16C21
330
16B78
100
AcDbEntity
  8
Dim
 62
     0
100
AcDbTrace
 10
-0.6936058643366025
 20
-162.5168399198051
 30
0.0
 11
-0.3469391976699358
 21
-162.5168399198051
 31
0.0
 12
-0.5202725310032689
 22
-161.4768399198051
 32
0.0
 13
-0.5202725310032689
 23
-161.4768399198051
 33
0.0
  0
SOLID
  5
16C22
330
16B78
100
AcDbEntity
  8
Dim
 62
     0
100
AcDbTrace
 10
-0.6936058643366058
 20
-177.6852945211867
 30
0.0
 11
-0.3469391976699391
 21
-177.6852945211867
 31
0.0
 12
-0.5202725310032727
 22
-178.7252945211867
 32
0.0
 13
-0.5202725310032727
 23
-178.7252945211867
 33
0.0
  0
MTEXT
  5
16C23
330
16B78
100
AcDbEntity
  8
Dim
 62
     0
100
AcDbMText
 10
-0.5202725310032435
 20
-169.5518540489945
 30
0.0
 40
0.8
 41
0.0
 46
0.0
 71
     5
 72
     1
  1
\A1;17{\H1.000000x;\S1/4;}"\PROUGH OPENING
 73
     1
 44
1.0
  0
POINT
  5
16C24
330
16B78
100
AcDbEntity
  8
Defpoints
 62
     0
100
AcDbPoint
 10
-20.91119598465281
 20
-161.4768399198051
 30
0.0
  0
POINT
  5
16C25
330
16B78
100
AcDbEntity
  8
Defpoints
 62
     0
100
AcDbPoint
 10
-20.90602925664132
 20
-178.7252945211867
 30
0.0
  0
POINT
  5
16C26
330
16B78
100
AcDbEntity
  8
Defpoints
 62
     0
100
AcDbPoint
 10
-0.5202725310032727
 20
-178.7252945211867
 30
0.0
  0
ENDBLK
  5
16B84
330
16B78
100
AcDbEntity
  8
0
100
AcDbBlockEnd
  0
BLOCK
  5
16BA7
330
16B9C
100
AcDbEntity
  8
0
100
AcDbBlockBegin
  2
*D4
 70
     1
 10
0.0
 20
0.0
 30
0.0
  3
*D4
  1

  0
LINE
  5
16BF5
330
16B9C
100
AcDbEntity
  8
Dim
 62
     0
370
    -2
100
AcDbLine
 10
-46.60801492895515
 20
-161.0598793769434
 30
0.0
 11
-50.93676316500824
 21
-161.0598793769434
 31
0.0
  0
LINE
  5
16BF6
330
16B9C
100
AcDbEntity
  8
Dim
 62
     0
370
    -2
100
AcDbLine
 10
-46.61679392122095
 20
-179.0598792315218
 30
0.0
 11
-50.93676316500825
 21
-179.0598792315218
 31
0.0
  0
LINE
  5
16BF7
330
16B9C
100
AcDbEntity
  8
Dim
 62
     0
370
    -2
100
AcDbLine
 10
-50.49676316500825
 20
-162.0998793769434
 30
0.0
 11
-50.49676316500825
 21
-167.9254418200763
 31
0.0
  0
LINE
  5
16BF8
330
16B9C
100
AcDbEntity
  8
Dim
 62
     0
370
    -2
100
AcDbLine
 10
-50.49676316500825
 20
-178.0198792315218
 30
0.0
 11
-50.49676316500825
 21
-171.4987751534096
 31
0.0
  0
SOLID
  5
16BF9
330
16B9C
100
AcDbEntity
  8
Dim
 62
     0
100
AcDbTrace
 10
-50.67009649834158
 20
-162.0998793769434
 30
0.0
 11
-50.32342983167492
 21
-162.0998793769434
 31
0.0
 12
-50.49676316500825
 22
-161.0598793769434
 32
0.0
 13
-50.49676316500825
 23
-161.0598793769434
 33
0.0
  0
SOLID
  5
16BFA
330
16B9C
100
AcDbEntity
  8
Dim
 62
     0
100
AcDbTrace
 10
-50.67009649834158
 20
-178.0198792315218
 30
0.0
 11
-50.32342983167492
 21
-178.0198792315218
 31
0.0
 12
-50.49676316500825
 22
-179.0598792315218
 32
0.0
 13
-50.49676316500825
 23
-179.0598792315218
 33
0.0
  0
MTEXT
  5
16BFB
330
16B9C
100
AcDbEntity
  8
Dim
 62
     0
100
AcDbMText
 10
-50.49676316500821
 20
-169.712108486743
 30
0.0
 40
0.8
 41
0.0
 46
0.0
 71
     5
 72
     1
  1
\A1;18"\PACTUAL
 73
     1
 44
1.0
  0
POINT
  5
16BFC
330
16B9C
100
AcDbEntity
  8
Defpoints
 62
     0
100
AcDbPoint
 10
-46.16801492895516
 20
-161.0598793769434
 30
0.0
  0
POINT
  5
16BFD
330
16B9C
100
AcDbEntity
  8
Defpoints
 62
     0
100
AcDbPoint
 10
-46.17679392122094
 20
-179.0598792315218
 30
0.0
  0
POINT
  5
16BFE
330
16B9C
100
AcDbEntity
  8
Defpoints
 62
     0
100
AcDbPoint
 10
-50.49676316500825
 20
-179.0598792315218
 30
0.0
  0
ENDBLK
  5
16BA8
330
16B9C
100
AcDbEntity
  8
0
100
AcDbBlockEnd
  0
BLOCK
  5
16BB4
330
16BA9
100
AcDbEntity
  8
0
100
AcDbBlockBegin
  2
*D5
 70
     1
 10
0.0
 20
0.0
 30
0.0
  3
*D5
  1

  0
LINE
  5
16BFF
330
16BA9
100
AcDbEntity
  8
Dim
 62
     0
370
    -2
100
AcDbLine
 10
-46.16727506941602
 20
-160.6198828059054
 30
0.0
 11
-46.16727506941602
 21
-155.9875020356923
 31
0.0
  0
LINE
  5
16C00
330
16BA9
100
AcDbEntity
  8
Dim
 62
     0
370
    -2
100
AcDbLine
 10
-28.67168043393767
 20
-160.6198828059054
 30
0.0
 11
-28.67168043393767
 21
-155.9875020356923
 31
0.0
  0
LINE
  5
16C01
330
16BA9
100
AcDbEntity
  8
Dim
 62
     0
370
    -2
100
AcDbLine
 10
-45.12727506941602
 20
-156.4275020356923
 30
0.0
 11
-42.13947775167684
 21
-156.4275020356923
 31
0.0
  0
LINE
  5
16C02
330
16BA9
100
AcDbEntity
  8
Dim
 62
     0
370
    -2
100
AcDbLine
 10
-29.71168043393767
 20
-156.4275020356923
 30
0.0
 11
-32.69947775167685
 21
-156.4275020356923
 31
0.0
  0
SOLID
  5
16C03
330
16BA9
100
AcDbEntity
  8
Dim
 62
     0
100
AcDbTrace
 10
-45.12727506941602
 20
-156.2541687023589
 30
0.0
 11
-45.12727506941602
 21
-156.6008353690256
 31
0.0
 12
-46.16727506941602
 22
-156.4275020356923
 32
0.0
 13
-46.16727506941602
 23
-156.4275020356923
 33
0.0
  0
SOLID
  5
16C04
330
16BA9
100
AcDbEntity
  8
Dim
 62
     0
100
AcDbTrace
 10
-29.71168043393767
 20
-156.2541687023589
 30
0.0
 11
-29.71168043393767
 21
-156.6008353690256
 31
0.0
 12
-28.67168043393767
 22
-156.4275020356923
 32
0.0
 13
-28.67168043393767
 23
-156.4275020356923
 33
0.0
  0
MTEXT
  5
16C05
330
16BA9
100
AcDbEntity
  8
Dim
 62
     0
100
AcDbMText
 10
-37.41947775167685
 20
-156.4275020356923
 30
0.0
 40
0.8
 41
0.0
 46
0.0
 71
     5
 72
     1
  1
\A1;17{\H1.000000x;\S1/2;}" ACTUAL
 73
     1
 44
1.0
  0
POINT
  5
16C06
330
16BA9
100
AcDbEntity
  8
Defpoints
 62
     0
100
AcDbPoint
 10
-46.16727506941602
 20
-161.0598828059054
 30
0.0
  0
POINT
  5
16C07
330
16BA9
100
AcDbEntity
  8
Defpoints
 62
     0
100
AcDbPoint
 10
-28.67168043393767
 20
-161.0598828059054
 30
0.0
  0
POINT
  5
16C08
330
16BA9
100
AcDbEntity
  8
Defpoints
 62
     0
100
AcDbPoint
 10
-28.67168043393767
 20
-156.4275020356923
 30
0.0
  0
ENDBLK
  5
16BB5
330
16BA9
100
AcDbEntity
  8
0
100
AcDbBlockEnd
  0
BLOCK
  5
16BC1
330
16BB6
100
AcDbEntity
  8
0
100
AcDbBlockBegin
  2
*D6
 70
     1
 10
0.0
 20
0.0
 30
0.0
  3
*D6
  1

  0
LINE
  5
16C09
330
16BB6
100
AcDbEntity
  8
Dim
 62
     0
370
    -2
100
AcDbLine
 10
-45.41727506941602
 20
-160.6198792499013
 30
0.0
 11
-45.41727506941602
 21
-158.7966109768462
 31
0.0
  0
LINE
  5
16C0A
330
16BB6
100
AcDbEntity
  8
Dim
 62
     0
370
    -2
100
AcDbLine
 10
-29.17242029347679
 20
-160.6198715130849
 30
0.0
 11
-29.17242029347679
 21
-158.7966109768462
 31
0.0
  0
LINE
  5
16C0B
330
16BB6
100
AcDbEntity
  8
Dim
 62
     0
370
    -2
100
AcDbLine
 10
-46.45727506941602
 20
-159.2366109768462
 30
0.0
 11
-47.49727506941602
 21
-159.2366109768462
 31
0.0
  0
LINE
  5
16C0C
330
16BB6
100
AcDbEntity
  8
Dim
 62
     0
370
    -2
100
AcDbLine
 10
-28.13242029347679
 20
-159.2366109768462
 30
0.0
 11
-27.09242029347679
 21
-159.2366109768462
 31
0.0
  0
SOLID
  5
16C0D
330
16BB6
100
AcDbEntity
  8
Dim
 62
     0
100
AcDbTrace
 10
-46.45727506941602
 20
-159.0632776435128
 30
0.0
 11
-46.45727506941602
 21
-159.4099443101795
 31
0.0
 12
-45.41727506941602
 22
-159.2366109768462
 32
0.0
 13
-45.41727506941602
 23
-159.2366109768462
 33
0.0
  0
SOLID
  5
16C0E
330
16BB6
100
AcDbEntity
  8
Dim
 62
     0
100
AcDbTrace
 10
-28.13242029347679
 20
-159.0632776435128
 30
0.0
 11
-28.13242029347679
 21
-159.4099443101795
 31
0.0
 12
-29.17242029347679
 22
-159.2366109768462
 32
0.0
 13
-29.17242029347679
 23
-159.2366109768462
 33
0.0
  0
MTEXT
  5
16C0F
330
16BB6
100
AcDbEntity
  8
Dim
 62
     0
100
AcDbMText
 10
-37.29484768144641
 20
-159.2366109768462
 30
0.0
 40
0.8
 41
0.0
 46
0.0
 71
     5
 72
     1
  1
\A1;16{\H1.000000x;\S1/4;}" ROUGH OPENING
 73
     1
 44
1.0
  0
POINT
  5
16C10
330
16BB6
100
AcDbEntity
  8
Defpoints
 62
     0
100
AcDbPoint
 10
-45.41727506941602
 20
-161.0598792499013
 30
0.0
  0
POINT
  5
16C11
330
16BB6
100
AcDbEntity
  8
Defpoints
 62
     0
100
AcDbPoint
 10
-29.17242029347679
 20
-161.0598715130849
 30
0.0
  0
POINT
  5
16C12
330
16BB6
100
AcDbEntity
  8
Defpoints
 62
     0
100
AcDbPoint
 10
-29.17242029347679
 20
-159.2366109768462
 30
0.0
  0
ENDBLK
  5
16BC2
330
16BB6
100
AcDbEntity
  8
0
100
AcDbBlockEnd
  0
ENDSEC
  0
SECTION
  2
ENTITIES
  0
MTEXT
  5
65D2
330
1F
100
AcDbEntity
  8
Dim
100
AcDbMText
 10
5.574218476155454
 20
5.092758844706973
 30
0.0
 40
0.1
 41
0.0
 46
0.0
 71
     9
 72
     1
  1

 73
     1
 44
1.0
  0
LINE
  5
1530D
330
1F
100
AcDbEntity
  8
Title Block
100
AcDbLine
 10
-95.18347077841943
 20
-222.1002227706031
 30
0.0
 11
-95.18347077841943
 21
-144.3191627706032
 31
0.0
  0
TEXT
  5
1530E
330
1F
100
AcDbEntity
  8
Text
100
AcDbText
 10
-27.84333100880766
 20
-221.1640904885234
 30
0.0
 40
0.5950834051227698
  1
Date: 12/20/10
  7
Title
100
AcDbText
  0
MTEXT
  5
1530F
330
1F
100
AcDbEntity
  8
Text
100
AcDbMText
 10
-27.8103367707525
 20
-215.7439970453403
 30
0.0
 40
0.6805841907371871
 41
42.43540180949995
 46
0.0
 71
     1
 72
     5
  1
\pt2.456;Product: 4C Horizontal - B Series "BOSTON"
  7
Title
 73
     1
 44
1.0
  0
LINE
  5
15310
330
1F
100
AcDbEntity
  8
Title Block
100
AcDbLine
 10
6.90417047158054
 20
-222.1002227706031
 30
0.0
 11
6.90417047158054
 21
-144.3191627706031
 31
0.0
  0
LINE
  5
15311
330
1F
100
AcDbEntity
  8
Title Block
100
AcDbLine
 10
6.90417047158054
 20
-144.3191627706031
 30
0.0
 11
-95.18347077841943
 21
-144.3191627706031
 31
0.0
  0
LINE
  5
15312
330
1F
100
AcDbEntity
  8
Title Block
100
AcDbLine
 10
-95.18347077841943
 20
-222.1002227706031
 30
0.0
 11
6.90417047158054
 21
-222.1002227706031
 31
0.0
  0
MTEXT
  5
15313
330
1F
100
AcDbEntity
  8
Text
100
AcDbMText
 10
-37.6486418958107
 20
-214.3953394955247
 30
0.0
 40
0.8327068632467739
 41
18.34007541729905
 46
0.0
 71
     2
 72
     5
  1
Postal Products Unlimited, Inc.\P500 W. Oklahoma Ave.\PMilwaukee, WI 53207-2649\Pwww.postalproducts.com\P(800) 229-4500
  7
Logo
 73
     1
 44
1.121605667060212
  0
LINE
  5
15314
330
1F
100
AcDbEntity
  8
Title Block
100
AcDbLine
 10
-46.98354430446193
 20
-214.0531043713931
 30
0.0
 11
-28.23679511190379
 21
-214.0531043713931
 31
0.0
  0
MTEXT
  5
15315
330
1F
100
AcDbEntity
  8
Text
100
AcDbMText
 10
-94.41956023522447
 20
-209.5626445476379
 30
0.0
 40
0.7211704321079996
 41
46.65870902929756
 46
1.154285714285713
 71
     1
 72
     5
  3
{\Fsimplex|c0;USPS STD-4C Installation requirements include:\P1. No parcel locker may be positioned lower than 15" (interior bottom shelf) \P  from the finished floor.\P2. At least one patron compartment shall be positioned less than 48" from the\P  
  3
finished floor.  \P3. No patron lock shall be positioned higher than 67" from the finished floor.\P4. No patron compartment shall be positioned lower than 28" (interior bottom\P  shelf) from the finished floor.\P5. The USPS Arrow Lock shall be positi
  1
oned 36" to 48" above the finished floor.}
  7
Notes
 73
     1
 44
1.05
  0
LINE
  5
15316
330
1F
100
AcDbEntity
  8
Title Block
100
AcDbLine
 10
-46.98354430446193
 20
-222.1002227706031
 30
0.0
 11
-46.98354430446193
 21
-214.0531043713931
 31
0.0
  0
TEXT
  5
15317
330
1F
100
AcDbEntity
  8
Text
100
AcDbText
 10
-11.29657134863045
 20
-221.1616743811693
 30
0.0
 40
0.5950834051227703
  1
Drawn By: JER
  7
Title
100
AcDbText
  0
LINE
  5
15318
330
1F
100
AcDbEntity
  8
Title Block
100
AcDbLine
 10
-28.23679511190377
 20
-217.3538237373012
 30
0.0
 11
6.90417047158054
 21
-217.3538237373012
 31
0.0
  0
LINE
  5
15319
330
1F
100
AcDbEntity
  8
Title Block
100
AcDbLine
 10
-28.23679511190377
 20
-219.6695646456031
 30
0.0
 11
6.90417047158054
 21
-219.6695646456031
 31
0.0
  0
TEXT
  5
1531A
330
1F
100
AcDbEntity
  8
Text
100
AcDbText
 10
-27.9332338861251
 20
-218.7323071256749
 30
0.0
 40
0.625588775280054
  1
Model: N1029448
  7
Title
100
AcDbText
  0
LINE
  5
1531B
330
1F
100
AcDbEntity
  8
Title Block
100
AcDbLine
 10
-28.23679511190377
 20
-214.0531043713931
 30
0.0
 11
-28.23679511190377
 21
-222.1002227706031
 31
0.0
  0
TEXT
  5
1531C
330
1F
100
AcDbEntity
  8
Text
100
AcDbText
 10
-18.58334549057111
 20
-221.2038298878005
 30
0.0
 40
0.5950834051227703
  1
Scale: NTS
  7
Title
100
AcDbText
  0
LINE
  5
1531D
330
1F
100
AcDbEntity
  8
Title Block
100
AcDbLine
 10
-18.80925570024164
 20
-219.6695646456031
 30
0.0
 11
-18.80925570024164
 21
-222.1002227706031
 31
0.0
  0
LINE
  5
1531E
330
1F
100
AcDbEntity
  8
Title Block
100
AcDbLine
 10
-11.90650459680779
 20
-219.6695646456031
 30
0.0
 11
-11.90650459680779
 21
-222.1002227706031
 31
0.0
  0
TEXT
  5
1531F
330
1F
100
AcDbEntity
  8
Text
100
AcDbText
 10
-2.535172813012605
 20
-221.1971113678406
 30
0.0
 40
0.5950834051227703
  1
Checked By: TR
  7
Title
100
AcDbText
  0
LINE
  5
15320
330
1F
100
AcDbEntity
  8
Title Block
100
AcDbLine
 10
-2.901417644983246
 20
-222.1002227706031
 30
0.0
 11
-2.901417644983246
 21
-219.6695646456031
 31
0.0
  0
IMAGE
  5
15321
330
1F
100
AcDbEntity
  8
Dim
 92
      140
310
8C00000001000000840000000600000005000000A17ABD9A9E3C3CC0EC227BF937E16AC00000000000000000A17ABD9A9E3C3CC0B57CAE5C28B469C000000000000000000CCA35DDDE9D1B40B57CAE5C28B469C000000000000000000CCA35DDDE9D1B40EC227BF937E16AC00000000000000000A17ABD9A9E3C3CC0EC227B
310
F937E16AC00000000000000000
100
AcDbRasterImage
 90
        0
 10
-28.23679511190369
 20
-215.0380828289993
 30
0.0
 11
0.0429596156277313
 21
0.0
 31
0.0
 12
0.0
 22
0.0429596156277314
 32
0.0
 13
818.0
 23
219.0
340
74D6
 70
     7
280
     0
281
    50
282
    50
283
     0
360
15322
 71
     1
 91
        2
 14
-0.5
 24
-0.5
 14
817.5
 24
218.5
  0
LINE
  5
15323
330
1F
100
AcDbEntity
  8
Title Block
100
AcDbLine
 10
-28.23679511190377
 20
-215.0380828289993
 30
0.0
 11
6.90417047158054
 21
-215.0380828289993
 31
0.0
  0
POINT
  5
15324
330
1F
100
AcDbEntity
  8
Dim
100
AcDbPoint
 10
-97.65271077841944
 20
-141.8499227706031
 30
0.0
  0
POINT
  5
15325
330
1F
100
AcDbEntity
  8
Dim
100
AcDbPoint
 10
9.373410471580555
 20
-141.8499227706031
 30
0.0
 50
180.0
  0
POINT
  5
15326
330
1F
100
AcDbEntity
  8
Dim
100
AcDbPoint
 10
-97.65271077841944
 20
-224.5694627706032
 30
0.0
  0
POINT
  5
15327
330
1F
100
AcDbEntity
  8
Dim
100
AcDbPoint
 10
9.373410471580555
 20
-224.5694627706032
 30
0.0
 50
180.0
  0
MTEXT
  5
15328
330
1F
100
AcDbEntity
  8
Dim
100
AcDbMText
 10
-73.85486252163308
 20
-180.2312185103818
 30
0.0
 40
1.0
 41
9.487581411075467
 46
2.666666666666669
 71
     2
 72
     5
  1
SAMPLE\PINSTALLATION
  7
view
 73
     1
 44
1.0
  0
LINE
  5
15329
330
1F
100
AcDbEntity
  8
0
100
AcDbLine
 10
-61.9312654989813
 20
-203.028219383013
 30
0.0
 11
-82.08383935813273
 21
-203.0282283725651
 31
0.0
  0
LINE
  5
1532B
330
1F
100
AcDbEntity
  8
0
100
AcDbLine
 10
-81.79486191610429
 20
-203.0282281741953
 30
0.0
 11
-82.0651918515281
 21
-203.5282282427804
 31
0.0
  0
LINE
  5
1534A
330
1F
100
AcDbEntity
  8
0
100
AcDbLine
 10
-81.30195968952438
 20
-203.0282281741953
 30
0.0
 11
-81.84261956037198
 21
-204.0282283113655
 31
0.0
  0
LINE
  5
1534B
330
1F
100
AcDbEntity
  8
0
100
AcDbLine
 10
-80.80905746294446
 20
-203.0282281741953
 30
0.0
 11
-81.34971733379206
 21
-204.0282283113655
 31
0.0
  0
LINE
  5
1534C
330
1F
100
AcDbEntity
  8
0
100
AcDbLine
 10
-80.31615523636453
 20
-203.0282281741953
 30
0.0
 11
-80.85681510721213
 21
-204.0282283113655
 31
0.0
  0
LINE
  5
1534D
330
1F
100
AcDbEntity
  8
0
100
AcDbLine
 10
-79.82325300978462
 20
-203.0282281741953
 30
0.0
 11
-80.36391288063223
 21
-204.0282283113655
 31
0.0
  0
LINE
  5
1534E
330
1F
100
AcDbEntity
  8
0
100
AcDbLine
 10
-79.33035078320471
 20
-203.0282281741953
 30
0.0
 11
-79.87101065405231
 21
-204.0282283113655
 31
0.0
  0
LINE
  5
1534F
330
1F
100
AcDbEntity
  8
0
100
AcDbLine
 10
-78.83744855662477
 20
-203.0282281741953
 30
0.0
 11
-79.37810842747238
 21
-204.0282283113655
 31
0.0
  0
LINE
  5
15350
330
1F
100
AcDbEntity
  8
0
100
AcDbLine
 10
-78.34454633004487
 20
-203.0282281741953
 30
0.0
 11
-78.88520620089247
 21
-204.0282283113655
 31
0.0
  0
LINE
  5
15351
330
1F
100
AcDbEntity
  8
0
100
AcDbLine
 10
-77.85164410346495
 20
-203.0282281741953
 30
0.0
 11
-78.39230397431255
 21
-204.0282283113655
 31
0.0
  0
LINE
  5
15352
330
1F
100
AcDbEntity
  8
0
100
AcDbLine
 10
-77.35874187688503
 20
-203.0282281741953
 30
0.0
 11
-77.89940174773263
 21
-204.0282283113655
 31
0.0
  0
LINE
  5
15353
330
1F
100
AcDbEntity
  8
0
100
AcDbLine
 10
-76.86583937985907
 20
-203.0282281741953
 30
0.0
 11
-77.40649925070667
 21
-204.0282283113655
 31
0.0
  0
LINE
  5
15354
330
1F
100
AcDbEntity
  8
0
100
AcDbLine
 10
-76.37293715327913
 20
-203.0282281741953
 30
0.0
 11
-76.91359702412674
 21
-204.0282283113655
 31
0.0
  0
LINE
  5
15355
330
1F
100
AcDbEntity
  8
0
100
AcDbLine
 10
-75.88003492669923
 20
-203.0282281741953
 30
0.0
 11
-76.42069479754683
 21
-204.0282283113655
 31
0.0
  0
LINE
  5
15356
330
1F
100
AcDbEntity
  8
0
100
AcDbLine
 10
-75.38713270011931
 20
-203.0282281741953
 30
0.0
 11
-75.92779257096691
 21
-204.0282283113655
 31
0.0
  0
LINE
  5
15357
330
1F
100
AcDbEntity
  8
0
100
AcDbLine
 10
-74.89423047353939
 20
-203.0282281741953
 30
0.0
 11
-75.434890344387
 21
-204.0282283113655
 31
0.0
  0
LINE
  5
15358
330
1F
100
AcDbEntity
  8
0
100
AcDbLine
 10
-74.40132824695947
 20
-203.0282281741953
 30
0.0
 11
-74.94198811780707
 21
-204.0282283113655
 31
0.0
  0
LINE
  5
15359
330
1F
100
AcDbEntity
  8
0
100
AcDbLine
 10
-73.90842602037955
 20
-203.0282281741953
 30
0.0
 11
-74.44908589122715
 21
-204.0282283113655
 31
0.0
  0
LINE
  5
1535A
330
1F
100
AcDbEntity
  8
0
100
AcDbLine
 10
-73.41552379379963
 20
-203.0282281741953
 30
0.0
 11
-73.95618366464724
 21
-204.0282283113655
 31
0.0
  0
LINE
  5
1535B
330
1F
100
AcDbEntity
  8
0
100
AcDbLine
 10
-72.92262156721972
 20
-203.0282281741953
 30
0.0
 11
-73.46328143806733
 21
-204.0282283113655
 31
0.0
  0
LINE
  5
1535C
330
1F
100
AcDbEntity
  8
0
100
AcDbLine
 10
-72.42971907019375
 20
-203.0282281741953
 30
0.0
 11
-72.97037894104136
 21
-204.0282283113655
 31
0.0
  0
LINE
  5
1535D
330
1F
100
AcDbEntity
  8
0
100
AcDbLine
 10
-71.93681684361383
 20
-203.0282281741953
 30
0.0
 11
-72.47747671446143
 21
-204.0282283113655
 31
0.0
  0
LINE
  5
1535E
330
1F
100
AcDbEntity
  8
0
100
AcDbLine
 10
-71.44391461703391
 20
-203.0282281741953
 30
0.0
 11
-71.98457448788151
 21
-204.0282283113655
 31
0.0
  0
LINE
  5
1535F
330
1F
100
AcDbEntity
  8
0
100
AcDbLine
 10
-70.951012390454
 20
-203.0282281741953
 30
0.0
 11
-71.4916722613016
 21
-204.0282283113655
 31
0.0
  0
LINE
  5
15360
330
1F
100
AcDbEntity
  8
0
100
AcDbLine
 10
-70.45811016387408
 20
-203.0282281741953
 30
0.0
 11
-70.99877003472169
 21
-204.0282283113655
 31
0.0
  0
LINE
  5
15361
330
1F
100
AcDbEntity
  8
0
100
AcDbLine
 10
-69.96520793729415
 20
-203.0282281741953
 30
0.0
 11
-70.50586780814176
 21
-204.0282283113655
 31
0.0
  0
LINE
  5
15362
330
1F
100
AcDbEntity
  8
0
100
AcDbLine
 10
-69.47230571071424
 20
-203.0282281741953
 30
0.0
 11
-70.01296558156184
 21
-204.0282283113655
 31
0.0
  0
LINE
  5
15363
330
1F
100
AcDbEntity
  8
0
100
AcDbLine
 10
-68.97940348413432
 20
-203.0282281741953
 30
0.0
 11
-69.52006335498193
 21
-204.0282283113655
 31
0.0
  0
LINE
  5
15364
330
1F
100
AcDbEntity
  8
0
100
AcDbLine
 10
-68.4865012575544
 20
-203.0282281741953
 30
0.0
 11
-69.02716112840201
 21
-204.0282283113655
 31
0.0
  0
LINE
  5
15365
330
1F
100
AcDbEntity
  8
0
100
AcDbLine
 10
-67.99359876052844
 20
-203.0282281741953
 30
0.0
 11
-68.53425863137605
 21
-204.0282283113655
 31
0.0
  0
LINE
  5
15366
330
1F
100
AcDbEntity
  8
0
100
AcDbLine
 10
-67.50069653394851
 20
-203.0282281741953
 30
0.0
 11
-68.04135640479612
 21
-204.0282283113655
 31
0.0
  0
LINE
  5
15367
330
1F
100
AcDbEntity
  8
0
100
AcDbLine
 10
-67.0077943073686
 20
-203.0282281741953
 30
0.0
 11
-67.5484541782162
 21
-204.0282283113655
 31
0.0
  0
LINE
  5
15368
330
1F
100
AcDbEntity
  8
0
100
AcDbLine
 10
-66.51489208078868
 20
-203.0282281741953
 30
0.0
 11
-67.05555195163629
 21
-204.0282283113655
 31
0.0
  0
LINE
  5
15369
330
1F
100
AcDbEntity
  8
0
100
AcDbLine
 10
-66.02198985420876
 20
-203.0282281741953
 30
0.0
 11
-66.56264972505637
 21
-204.0282283113655
 31
0.0
  0
LINE
  5
1536A
330
1F
100
AcDbEntity
  8
0
100
AcDbLine
 10
-65.52908762762884
 20
-203.0282281741953
 30
0.0
 11
-66.06974749847644
 21
-204.0282283113655
 31
0.0
  0
LINE
  5
1536B
330
1F
100
AcDbEntity
  8
0
100
AcDbLine
 10
-65.03618540104892
 20
-203.0282281741953
 30
0.0
 11
-65.57684527189653
 21
-204.0282283113655
 31
0.0
  0
LINE
  5
1536C
330
1F
100
AcDbEntity
  8
0
100
AcDbLine
 10
-64.54328317446901
 20
-203.0282281741953
 30
0.0
 11
-65.08394304531662
 21
-204.0282283113655
 31
0.0
  0
LINE
  5
1536D
330
1F
100
AcDbEntity
  8
0
100
AcDbLine
 10
-64.0503809478891
 20
-203.0282281741953
 30
0.0
 11
-64.5910408187367
 21
-204.0282283113655
 31
0.0
  0
LINE
  5
1536E
330
1F
100
AcDbEntity
  8
0
100
AcDbLine
 10
-63.55747845086312
 20
-203.0282281741953
 30
0.0
 11
-64.09813832171074
 21
-204.0282283113655
 31
0.0
  0
LINE
  5
1536F
330
1F
100
AcDbEntity
  8
0
100
AcDbLine
 10
-63.0645762242832
 20
-203.0282281741953
 30
0.0
 11
-63.6052360951308
 21
-204.0282283113655
 31
0.0
  0
LINE
  5
15370
330
1F
100
AcDbEntity
  8
0
100
AcDbLine
 10
-62.57167399770328
 20
-203.0282281741953
 30
0.0
 11
-63.11233386855089
 21
-204.0282283113655
 31
0.0
  0
LINE
  5
15371
330
1F
100
AcDbEntity
  8
0
100
AcDbLine
 10
-62.07877177112337
 20
-203.0282281741953
 30
0.0
 11
-62.61943164197098
 21
-204.0282283113655
 31
0.0
  0
LINE
  5
15372
330
1F
100
AcDbEntity
  8
0
100
AcDbLine
 10
-61.85619947996726
 20
-203.5282282427804
 30
0.0
 11
-62.12652941539106
 21
-204.0282283113655
 31
0.0
  0
MTEXT
  5
15373
330
1F
100
AcDbEntity
  8
Dim
100
AcDbMText
 10
-74.58745681254033
 20
-204.7197885901107
 30
0.0
 40
0.75
 41
9.017760497408644
 46
0.8230773594958247
 71
     2
 72
     5
  1
FINISHED FLOOR
  7
view
 73
     1
 44
1.0
  0
DIMENSION
  5
15375
330
1F
100
AcDbEntity
  8
Dim
100
AcDbDimension
  2
*D1
 10
-64.3805252537858
 20
-196.8052199407809
 30
0.0
 11
-64.38052525378577
 21
-199.9051640454458
 31
0.0
 70
   160
  1
15" MINIMUM\P(PARCEL LOCKER)
 71
     5
 42
6.222999442232094
 73
     0
 74
     0
 75
     0
  3
Standard
100
AcDbAlignedDimension
 13
-64.38052525378577
 23
-203.028219383013
 33
0.0
 14
-69.50674614285834
 24
-196.8052199407809
 34
0.0
 50
90.0
100
AcDbRotatedDimension
  0
LINE
  5
166F0
330
1F
100
AcDbEntity
  8
0
100
AcDbLine
 10
-30.07202280296408
 20
-178.2528793769455
 30
0.0
 11
-30.07202280296408
 21
-178.2529659911185
 31
0.0
  0
LINE
  5
166F1
330
1F
100
AcDbEntity
  8
0
100
AcDbLine
 10
-30.23602280296408
 20
-178.2528793769455
 30
0.0
 11
-30.23602280296408
 21
-178.2529659911185
 31
0.0
  0
LINE
  5
166F2
330
1F
100
AcDbEntity
  8
0
100
AcDbLine
 10
-29.57202280296391
 20
-178.2528793769456
 30
0.0
 11
-29.57202280296391
 21
-178.2529659911185
 31
0.0
  0
LINE
  5
166F3
330
1F
100
AcDbEntity
  8
0
100
AcDbLine
 10
-29.7360228029639
 20
-178.2528793769456
 30
0.0
 11
-29.7360228029639
 21
-178.2529659911185
 31
0.0
  0
LINE
  5
166F4
330
1F
100
AcDbEntity
  8
0
100
AcDbLine
 10
-30.23602280297072
 20
-161.8670526052921
 30
0.0
 11
-30.23602280297072
 21
-161.8669659911168
 31
0.0
  0
LINE
  5
166F5
330
1F
100
AcDbEntity
  8
0
100
AcDbLine
 10
-30.07202280297072
 20
-161.8670526052921
 30
0.0
 11
-30.07202280297072
 21
-161.8669659911168
 31
0.0
  0
LINE
  5
166F6
330
1F
100
AcDbEntity
  8
0
100
AcDbLine
 10
-29.73602280297072
 20
-161.8670526052921
 30
0.0
 11
-29.73602280297072
 21
-161.8669659911168
 31
0.0
  0
LINE
  5
166F7
330
1F
100
AcDbEntity
  8
0
100
AcDbLine
 10
-29.57202280297071
 20
-161.8670526052921
 30
0.0
 11
-29.57202280297071
 21
-161.8669659911168
 31
0.0
  0
LINE
  5
166F8
330
1F
100
AcDbEntity
  8
0
100
AcDbLine
 10
-30.24740862974674
 20
-161.8670526052925
 30
0.0
 11
-30.17799913340414
 21
-161.8670526052925
 31
0.0
  0
LINE
  5
166F9
330
1F
100
AcDbEntity
  8
0
100
AcDbLine
 10
-30.17799913340413
 20
-161.8670526052925
 30
0.0
 11
-30.16413327689597
 21
-161.8670526052925
 31
0.0
  0
LINE
  5
166FA
330
1F
100
AcDbEntity
  8
0
100
AcDbLine
 10
-30.14960307276845
 20
-161.8670526052925
 30
0.0
 11
-30.16413327689598
 21
-161.8670526052925
 31
0.0
  0
LINE
  5
166FB
330
1F
100
AcDbEntity
  8
0
100
AcDbLine
 10
-30.14960307276845
 20
-161.8670526052925
 30
0.0
 11
-30.14880812130297
 21
-161.8670526052925
 31
0.0
  0
LINE
  5
166FC
330
1F
100
AcDbEntity
  8
0
100
AcDbLine
 10
-30.07756444678902
 20
-161.8670526052925
 30
0.0
 11
-30.14880812130297
 21
-161.8670526052925
 31
0.0
  0
LINE
  5
166FD
330
1F
100
AcDbEntity
  8
0
100
AcDbLine
 10
-30.07756444678901
 20
-161.8670526052925
 30
0.0
 11
-30.06444589510334
 21
-161.8670526052925
 31
0.0
  0
LINE
  5
166FE
330
1F
100
AcDbEntity
  8
0
100
AcDbLine
 10
-30.02184921988729
 20
-161.8670526052925
 30
0.0
 11
-30.06444589510334
 21
-161.8670526052925
 31
0.0
  0
LINE
  5
166FF
330
1F
100
AcDbEntity
  8
0
100
AcDbLine
 10
-30.02184921988729
 20
-161.8670526052925
 30
0.0
 11
-30.01950966431848
 21
-161.8670526052925
 31
0.0
  0
LINE
  5
16700
330
1F
100
AcDbEntity
  8
0
100
AcDbLine
 10
-29.94540862974681
 20
-161.8670526052925
 30
0.0
 11
-30.01950966431848
 21
-161.8670526052925
 31
0.0
  0
LINE
  5
16701
330
1F
100
AcDbEntity
  8
0
100
AcDbLine
 10
-29.94540862974681
 20
-161.8670526052925
 30
0.0
 11
-29.93040862974681
 21
-161.8670526052925
 31
0.0
  0
LINE
  5
16702
330
1F
100
AcDbEntity
  8
0
100
AcDbLine
 10
-29.82139291848194
 20
-161.8670526052925
 30
0.0
 11
-29.93040862974681
 21
-161.8670526052925
 31
0.0
  0
LINE
  5
16703
330
1F
100
AcDbEntity
  8
0
100
AcDbLine
 10
-29.80644999801056
 20
-161.8670526052925
 30
0.0
 11
-29.82139291848194
 21
-161.8670526052925
 31
0.0
  0
LINE
  5
16704
330
1F
100
AcDbEntity
  8
0
100
AcDbLine
 10
-29.77640180595058
 20
-161.8670526052925
 30
0.0
 11
-29.80644999801056
 21
-161.8670526052925
 31
0.0
  0
LINE
  5
16705
330
1F
100
AcDbEntity
  8
0
100
AcDbLine
 10
-29.77640180595058
 20
-161.8670526052925
 30
0.0
 11
-29.72659207104601
 21
-161.8670526052925
 31
0.0
  0
LINE
  5
16706
330
1F
100
AcDbEntity
  8
0
100
AcDbLine
 10
-28.65240862974705
 20
-161.8670526052925
 30
0.0
 11
-29.72659207104601
 21
-161.8670526052925
 31
0.0
  0
LINE
  5
16707
330
1F
100
AcDbEntity
  8
0
100
AcDbLine
 10
-28.65240862974705
 20
-161.8670526052925
 30
0.0
 11
-28.63740862974704
 21
-161.8670526052925
 31
0.0
  0
LINE
  5
16708
330
1F
100
AcDbEntity
  8
0
100
AcDbLine
 10
-30.3349008051544
 20
-161.8670526052925
 30
0.0
 11
-30.90077396425434
 21
-161.8670526052925
 31
0.0
  0
LINE
  5
16709
330
1F
100
AcDbEntity
  8
0
100
AcDbLine
 10
-30.28740862974663
 20
-161.8670526052925
 30
0.0
 11
-30.3349008051544
 21
-161.8670526052925
 31
0.0
  0
LINE
  5
1670A
330
1F
100
AcDbEntity
  8
0
100
AcDbLine
 10
-30.28740862974663
 20
-161.8670526052925
 30
0.0
 11
-30.2748894410933
 21
-161.8670526052925
 31
0.0
  0
LINE
  5
1670B
330
1F
100
AcDbEntity
  8
0
100
AcDbLine
 10
-30.2748894410933
 20
-161.8670526052925
 30
0.0
 11
-30.24740862974673
 21
-161.8670526052925
 31
0.0
  0
LINE
  5
1670C
330
1F
100
AcDbEntity
  8
0
100
AcDbLine
 10
-30.24740862974674
 20
-161.895595912379
 30
0.0
 11
-30.24740862974674
 21
-161.8670526052925
 31
0.0
  0
LINE
  5
1670D
330
1F
100
AcDbEntity
  8
0
100
AcDbLine
 10
-29.93040862974679
 20
-178.2528793769455
 30
0.0
 11
-29.94540862974677
 21
-178.2528793769455
 31
0.0
  0
LINE
  5
1670E
330
1F
100
AcDbEntity
  8
0
100
AcDbLine
 10
-29.93040862974679
 20
-178.2528793769455
 30
0.0
 11
-29.82139291848191
 21
-178.2528793769455
 31
0.0
  0
LINE
  5
1670F
330
1F
100
AcDbEntity
  8
0
100
AcDbLine
 10
-29.82139291848191
 20
-178.2528793769455
 30
0.0
 11
-29.80644999801054
 21
-178.2528793769455
 31
0.0
  0
LINE
  5
16710
330
1F
100
AcDbEntity
  8
0
100
AcDbLine
 10
-29.80644999801054
 20
-178.2528793769455
 30
0.0
 11
-29.77640180595055
 21
-178.2528793769455
 31
0.0
  0
LINE
  5
16711
330
1F
100
AcDbEntity
  8
0
100
AcDbLine
 10
-29.72659207104598
 20
-178.2528793769455
 30
0.0
 11
-29.77640180595055
 21
-178.2528793769455
 31
0.0
  0
LINE
  5
16712
330
1F
100
AcDbEntity
  8
0
100
AcDbLine
 10
-29.72659207104598
 20
-178.2528793769455
 30
0.0
 11
-28.65240862974701
 21
-178.2528793769455
 31
0.0
  0
LINE
  5
16713
330
1F
100
AcDbEntity
  8
0
100
AcDbLine
 10
-28.63740862974701
 20
-178.2528793769455
 30
0.0
 11
-28.65240862974701
 21
-178.2528793769455
 31
0.0
  0
LINE
  5
16714
330
1F
100
AcDbEntity
  8
0
100
AcDbLine
 10
-28.63740862974705
 20
-161.8670526052925
 30
0.0
 11
-28.63740862974702
 21
-178.2528793769455
 31
0.0
  0
LINE
  5
16715
330
1F
100
AcDbEntity
  8
0
100
AcDbLine
 10
-31.08740862974648
 20
-178.1405959123784
 30
0.0
 11
-31.08740862974648
 21
-178.2528793769455
 31
0.0
  0
LINE
  5
16716
330
1F
100
AcDbEntity
  8
0
100
AcDbLine
 10
-31.07240862974648
 20
-178.2528793769455
 30
0.0
 11
-31.08740862974648
 21
-178.2528793769455
 31
0.0
  0
LINE
  5
16717
330
1F
100
AcDbEntity
  8
0
100
AcDbLine
 10
-31.07240862974648
 20
-178.2528793769455
 30
0.0
 11
-30.38740862974654
 21
-178.2528793769455
 31
0.0
  0
LINE
  5
16718
330
1F
100
AcDbEntity
  8
0
100
AcDbLine
 10
-30.14880812130297
 20
-161.8670526052925
 30
0.0
 11
-30.14880812130297
 21
-161.895595912379
 31
0.0
  0
LINE
  5
16719
330
1F
100
AcDbEntity
  8
0
100
AcDbLine
 10
-30.01950966431848
 20
-161.8670526052925
 30
0.0
 11
-30.01950966431848
 21
-161.895595912379
 31
0.0
  0
LINE
  5
1671A
330
1F
100
AcDbEntity
  8
0
100
AcDbLine
 10
-29.94540862974681
 20
-161.8670526052925
 30
0.0
 11
-29.94540862974677
 21
-178.2528793769455
 31
0.0
  0
LINE
  5
1671B
330
1F
100
AcDbEntity
  8
0
100
AcDbLine
 10
-30.28740862974663
 20
-161.8670526052925
 30
0.0
 11
-30.28740862974663
 21
-161.895595912379
 31
0.0
  0
ARC
  5
1671C
330
1F
100
AcDbEntity
  8
0
100
AcDbCircle
 10
-31.36358973210894
 20
-161.9271470934816
 30
0.0
 40
0.0511811023621947
100
AcDbArc
 50
38.05819520242891
 51
90.0
  0
ARC
  5
1671D
330
1F
100
AcDbEntity
  8
0
100
AcDbCircle
 10
-43.26122752738098
 20
-161.9271470934815
 30
0.0
 40
0.0511811023621959
100
AcDbArc
 50
89.99999999999023
 51
141.9418047977426
  0
LINE
  5
1671E
330
1F
100
AcDbEntity
  8
0
100
AcDbLine
 10
-43.26122752738099
 20
-161.8955959123785
 30
0.0
 11
-43.26122752738099
 21
-161.8759659911193
 31
0.0
  0
LINE
  5
1671F
330
1F
100
AcDbEntity
  8
0
100
AcDbLine
 10
-31.36358973210894
 20
-161.8759659911194
 30
0.0
 11
-31.36358973210894
 21
-161.8955959123784
 31
0.0
  0
LINE
  5
16720
330
1F
100
AcDbEntity
  8
0
100
AcDbLine
 10
-31.36358973210894
 20
-161.8759659911194
 30
0.0
 11
-43.26122752738099
 21
-161.8759659911193
 31
0.0
  0
LINE
  5
16721
330
1F
100
AcDbEntity
  8
0
100
AcDbLine
 10
-33.55252673998064
 20
-161.8759659911204
 30
0.0
 11
-33.55252673998064
 21
-161.8709659911193
 31
0.0
  0
LINE
  5
16722
330
1F
100
AcDbEntity
  8
0
100
AcDbLine
 10
-41.08252673997836
 20
-161.8709659911193
 30
0.0
 11
-41.08252673997836
 21
-161.8759659911204
 31
0.0
  0
LINE
  5
16723
330
1F
100
AcDbEntity
  8
0
100
AcDbLine
 10
-41.55252673997821
 20
-161.8759659911204
 30
0.0
 11
-41.55252673997821
 21
-161.8709659911193
 31
0.0
  0
LINE
  5
16724
330
1F
100
AcDbEntity
  8
0
100
AcDbLine
 10
-33.08252673998076
 20
-161.8709659911193
 30
0.0
 11
-33.08252673998076
 21
-161.8759659911204
 31
0.0
  0
LINE
  5
16725
330
1F
100
AcDbEntity
  8
0
100
AcDbLine
 10
-33.55252673998064
 20
-161.8709659911193
 30
0.0
 11
-41.08252673997836
 21
-161.8709659911193
 31
0.0
  0
LINE
  5
16726
330
1F
100
AcDbEntity
  8
0
100
AcDbLine
 10
-41.55252673997821
 20
-161.8709659911193
 30
0.0
 11
-43.31752673997521
 21
-161.8709659911193
 31
0.0
  0
LINE
  5
16727
330
1F
100
AcDbEntity
  8
0
100
AcDbLine
 10
-31.31240862974516
 20
-161.8709659911193
 30
0.0
 11
-33.08252673998076
 21
-161.8709659911193
 31
0.0
  0
LINE
  5
16728
330
1F
100
AcDbEntity
  8
0
100
AcDbLine
 10
-31.31240862974636
 20
-178.2529659911183
 30
0.0
 11
-31.31240862974636
 21
-178.1405959123786
 31
0.0
  0
LINE
  5
16729
330
1F
100
AcDbEntity
  8
0
100
AcDbLine
 10
-31.31240862974637
 20
-171.6294305580483
 30
0.0
 11
-31.31240862974637
 21
-171.5645959123789
 31
0.0
  0
LINE
  5
1672A
330
1F
100
AcDbEntity
  8
0
100
AcDbLine
 10
-31.31240862974637
 20
-161.8955959123795
 30
0.0
 11
-31.31240862974637
 21
-161.8709659911193
 31
0.0
  0
LINE
  5
1672B
330
1F
100
AcDbEntity
  8
0
100
AcDbLine
 10
-31.31240862974637
 20
-161.8709659911193
 30
0.0
 11
-31.27985220349343
 21
-161.8709659911193
 31
0.0
  0
LINE
  5
1672C
330
1F
100
AcDbEntity
  8
0
100
AcDbLine
 10
-31.24102836786576
 20
-161.8709659911193
 30
0.0
 11
-31.27985220349343
 21
-161.8709659911193
 31
0.0
  0
LINE
  5
1672D
330
1F
100
AcDbEntity
  8
0
100
AcDbLine
 10
-31.08740862974648
 20
-178.2529659911183
 30
0.0
 11
-31.08740862974648
 21
-178.2528793769456
 31
0.0
  0
LINE
  5
1672E
330
1F
100
AcDbEntity
  8
0
100
AcDbLine
 10
-31.13229051951024
 20
-178.2529659911183
 30
0.0
 11
-31.13229051951024
 21
-178.1405959123786
 31
0.0
  0
LINE
  5
1672F
330
1F
100
AcDbEntity
  8
0
100
AcDbLine
 10
-43.31752673997889
 20
-178.2529659911184
 30
0.0
 11
-43.31752673997889
 21
-178.1405959123786
 31
0.0
  0
LINE
  5
16730
330
1F
100
AcDbEntity
  8
0
100
AcDbLine
 10
-43.3175267399789
 20
-161.8955959123767
 30
0.0
 11
-43.31752673997889
 21
-161.8669659911167
 31
0.0
  0
LINE
  5
16731
330
1F
100
AcDbEntity
  8
0
100
AcDbLine
 10
-44.59752673997882
 20
-178.2529659911184
 30
0.0
 11
-44.59752673997882
 21
-178.1278793769455
 31
0.0
  0
LINE
  5
16732
330
1F
100
AcDbEntity
  8
0
100
AcDbLine
 10
-44.59752673997882
 20
-161.8955959123768
 30
0.0
 11
-44.59752673997882
 21
-161.8669659911167
 31
0.0
  0
LINE
  5
16733
330
1F
100
AcDbEntity
  8
0
100
AcDbLine
 10
-44.69752673997881
 20
-178.2529659911184
 30
0.0
 11
-44.69752673997881
 21
-178.1278793769455
 31
0.0
  0
LINE
  5
16734
330
1F
100
AcDbEntity
  8
0
100
AcDbLine
 10
-44.69752673997881
 20
-161.8955959123768
 30
0.0
 11
-44.69752673997881
 21
-161.8669659911167
 31
0.0
  0
LINE
  5
16735
330
1F
100
AcDbEntity
  8
0
100
AcDbLine
 10
-44.94752673997879
 20
-178.2529659911184
 30
0.0
 11
-44.94752673997879
 21
-178.1278793769455
 31
0.0
  0
LINE
  5
16736
330
1F
100
AcDbEntity
  8
0
100
AcDbLine
 10
-44.94752673997879
 20
-161.8955959123768
 30
0.0
 11
-44.94752673997879
 21
-161.8669659911167
 31
0.0
  0
LINE
  5
16737
330
1F
100
AcDbEntity
  8
0
100
AcDbLine
 10
-45.14752673997878
 20
-178.2529659911184
 30
0.0
 11
-45.14752673997878
 21
-161.8669659911167
 31
0.0
  0
LINE
  5
16738
330
1F
100
AcDbEntity
  8
0
100
AcDbLine
 10
-45.17471466328998
 20
-161.8669659911167
 30
0.0
 11
-45.16653433319634
 21
-161.8669659911167
 31
0.0
  0
LINE
  5
16739
330
1F
100
AcDbEntity
  8
0
100
AcDbLine
 10
-45.17471466328998
 20
-178.2529659911184
 30
0.0
 11
-45.16653433319539
 21
-178.2529659911184
 31
0.0
  0
LINE
  5
1673A
330
1F
100
AcDbEntity
  8
0
100
AcDbLine
 10
-45.17471466328998
 20
-161.8669659911167
 30
0.0
 11
-46.15252673997872
 21
-161.8669659911167
 31
0.0
  0
LINE
  5
1673B
330
1F
100
AcDbEntity
  8
0
100
AcDbLine
 10
-45.17471466328998
 20
-178.2529659911184
 30
0.0
 11
-46.15252673997872
 21
-178.2529659911184
 31
0.0
  0
LINE
  5
1673C
330
1F
100
AcDbEntity
  8
0
100
AcDbLine
 10
-46.15854405436428
 20
-161.8669659911167
 30
0.0
 11
-46.15252673997872
 21
-161.8669659911167
 31
0.0
  0
LINE
  5
1673D
330
1F
100
AcDbEntity
  8
0
100
AcDbLine
 10
-46.16752673997871
 20
-178.2529659911184
 30
0.0
 11
-46.16752673997871
 21
-161.8669659911167
 31
0.0
  0
LINE
  5
1673E
330
1F
100
AcDbEntity
  8
0
100
AcDbLine
 10
-46.15854405436496
 20
-178.2529659911184
 30
0.0
 11
-46.15252673997872
 21
-178.2529659911184
 31
0.0
  0
LINE
  5
1673F
330
1F
100
AcDbEntity
  8
0
100
AcDbLine
 10
-28.63853461399425
 20
-178.2529659911185
 30
0.0
 11
-45.16653433319563
 21
-178.2529659911184
 31
0.0
  0
LINE
  5
16740
330
1F
100
AcDbEntity
  8
0
100
AcDbLine
 10
-46.15854405436528
 20
-178.2529659911184
 30
0.0
 11
-46.16853461399457
 21
-178.2529659911184
 31
0.0
  0
LINE
  5
16741
330
1F
100
AcDbEntity
  8
0
100
AcDbLine
 10
-46.16853461399457
 20
-178.2529659911184
 30
0.0
 11
-46.16853461399457
 21
-179.0600526052917
 31
0.0
  0
LINE
  5
16742
330
1F
100
AcDbEntity
  8
0
100
AcDbLine
 10
-28.63853461399425
 20
-179.0600526052919
 30
0.0
 11
-46.16853461399457
 21
-179.0600526052917
 31
0.0
  0
LINE
  5
16743
330
1F
100
AcDbEntity
  8
0
100
AcDbLine
 10
-28.63853461399425
 20
-178.2529659911185
 30
0.0
 11
-28.63853461399425
 21
-179.0600526052919
 31
0.0
  0
LINE
  5
16744
330
1F
100
AcDbEntity
  8
0
100
AcDbLine
 10
-46.16801492895517
 20
-161.8669659911167
 30
0.0
 11
-46.15854405436414
 21
-161.8669659911167
 31
0.0
  0
LINE
  5
16745
330
1F
100
AcDbEntity
  8
0
100
AcDbLine
 10
-45.16653433319613
 20
-161.8669659911167
 30
0.0
 11
-28.63801492895505
 21
-161.8669659911168
 31
0.0
  0
LINE
  5
16746
330
1F
100
AcDbEntity
  8
0
100
AcDbLine
 10
-28.63801492895506
 20
-161.8669659911168
 30
0.0
 11
-28.63801492895504
 21
-161.0598793769436
 31
0.0
  0
LINE
  5
16747
330
1F
100
AcDbEntity
  8
0
100
AcDbLine
 10
-46.16801492895515
 20
-161.0598793769434
 30
0.0
 11
-28.63801492895505
 21
-161.0598793769436
 31
0.0
  0
LINE
  5
16748
330
1F
100
AcDbEntity
  8
0
100
AcDbLine
 10
-46.16801492895517
 20
-161.8669659911167
 30
0.0
 11
-46.16801492895515
 21
-161.0598793769434
 31
0.0
  0
LINE
  5
16749
330
1F
100
AcDbEntity
  8
0
100
AcDbLine
 10
-30.91540862974676
 20
-171.5645959123784
 30
0.0
 11
-30.91540862974676
 21
-171.5648793769454
 31
0.0
  0
LINE
  5
1674A
330
1F
100
AcDbEntity
  8
0
100
AcDbLine
 10
-30.91540862974676
 20
-171.5648793769454
 30
0.0
 11
-30.97541256675465
 21
-171.5648793769454
 31
0.0
  0
LINE
  5
1674B
330
1F
100
AcDbEntity
  8
0
100
AcDbLine
 10
-30.43040862974686
 20
-161.8955959123784
 30
0.0
 11
-30.78540862974684
 21
-161.8955959123784
 31
0.0
  0
LINE
  5
1674C
330
1F
100
AcDbEntity
  8
0
100
AcDbLine
 10
-30.43040862974673
 20
-178.1278793769455
 30
0.0
 11
-30.7854086297467
 21
-178.1278793769455
 31
0.0
  0
LINE
  5
1674D
330
1F
100
AcDbEntity
  8
0
100
AcDbLine
 10
-30.43040862974673
 20
-178.1278793769455
 30
0.0
 11
-30.43040862974686
 21
-161.8955959123784
 31
0.0
  0
LINE
  5
1674E
330
1F
100
AcDbEntity
  8
0
100
AcDbLine
 10
-30.80040862974684
 20
-161.8955959123784
 30
0.0
 11
-30.78540862974684
 21
-161.8955959123784
 31
0.0
  0
LINE
  5
1674F
330
1F
100
AcDbEntity
  8
0
100
AcDbLine
 10
-30.80040862974672
 20
-177.7754305580478
 30
0.0
 11
-30.80040862974684
 21
-162.2705959123782
 31
0.0
  0
LINE
  5
16750
330
1F
100
AcDbEntity
  8
0
100
AcDbLine
 10
-30.8004086297467
 20
-178.1278793769455
 30
0.0
 11
-30.7854086297467
 21
-178.1278793769455
 31
0.0
  0
LINE
  5
16751
330
1F
100
AcDbEntity
  8
0
100
AcDbLine
 10
-30.32313197121208
 20
-161.8955959123784
 30
0.0
 11
-29.94540862974708
 21
-161.8955959123784
 31
0.0
  0
LINE
  5
16752
330
1F
100
AcDbEntity
  8
0
100
AcDbLine
 10
-30.32313197121208
 20
-161.8955959123784
 30
0.0
 11
-30.42321548770182
 21
-161.8955959123784
 31
0.0
  0
LINE
  5
16753
330
1F
100
AcDbEntity
  8
0
100
AcDbLine
 10
-30.3534607303321
 20
-178.1278793769455
 30
0.0
 11
-30.42321548770168
 21
-178.1278793769455
 31
0.0
  0
LINE
  5
16754
330
1F
100
AcDbEntity
  8
0
100
AcDbLine
 10
-30.42321548770181
 20
-161.8955959123784
 30
0.0
 11
-30.43040862974686
 21
-161.8955959123784
 31
0.0
  0
LINE
  5
16755
330
1F
100
AcDbEntity
  8
0
100
AcDbLine
 10
-30.42321548770168
 20
-178.1278793769455
 30
0.0
 11
-30.43040862974673
 21
-178.1278793769455
 31
0.0
  0
LINE
  5
16756
330
1F
100
AcDbEntity
  8
0
100
AcDbLine
 10
-43.36044799982502
 20
-162.2705959123784
 30
0.0
 11
-43.36044799982502
 21
-162.3384305580478
 31
0.0
  0
LINE
  5
16757
330
1F
100
AcDbEntity
  8
0
100
AcDbLine
 10
-43.68544799982501
 20
-162.2659502430865
 30
0.0
 11
-43.68544799982501
 21
-162.2555959123784
 31
0.0
  0
LINE
  5
16758
330
1F
100
AcDbEntity
  8
0
100
AcDbLine
 10
-43.68544799982501
 20
-161.9105959123784
 30
0.0
 11
-43.685447999825
 21
-162.2555959123784
 31
0.0
  0
LINE
  5
16759
330
1F
100
AcDbEntity
  8
0
100
AcDbLine
 10
-43.68544799982501
 20
-161.9105959123784
 30
0.0
 11
-43.68544799982501
 21
-161.9002415816703
 31
0.0
  0
LINE
  5
1675A
330
1F
100
AcDbEntity
  8
0
100
AcDbLine
 10
-30.80040862974684
 20
-161.8955959123784
 30
0.0
 11
-43.68080233053308
 21
-161.8955959123784
 31
0.0
  0
LINE
  5
1675B
330
1F
100
AcDbEntity
  8
0
100
AcDbLine
 10
-30.80040862974684
 20
-161.8955959123784
 30
0.0
 11
-30.80040862974684
 21
-161.9105959123784
 31
0.0
  0
LINE
  5
1675C
330
1F
100
AcDbEntity
  8
0
100
AcDbLine
 10
-30.80040862974684
 20
-162.2555959123783
 30
0.0
 11
-30.80040862974684
 21
-161.9105959123784
 31
0.0
  0
LINE
  5
1675D
330
1F
100
AcDbEntity
  8
0
100
AcDbLine
 10
-30.80040862974684
 20
-162.2555959123783
 30
0.0
 11
-30.80040862974684
 21
-162.2705959123783
 31
0.0
  0
LINE
  5
1675E
330
1F
100
AcDbEntity
  8
0
100
AcDbLine
 10
-30.80040862974684
 20
-162.2705959123783
 30
0.0
 11
-43.68080233053308
 21
-162.2705959123784
 31
0.0
  0
LINE
  5
1675F
330
1F
100
AcDbEntity
  8
0
100
AcDbLine
 10
-43.69580233053366
 20
-161.8955959123784
 30
0.0
 11
-43.68080233053366
 21
-161.8955959123784
 31
0.0
  0
LINE
  5
16760
330
1F
100
AcDbEntity
  8
0
100
AcDbLine
 10
-43.69580233053354
 20
-178.1278793769455
 30
0.0
 11
-43.68544799982539
 21
-178.1278793769455
 31
0.0
  0
LINE
  5
16761
330
1F
100
AcDbEntity
  8
0
100
AcDbLine
 10
-43.68080233053354
 20
-177.7754305580479
 30
0.0
 11
-43.68080233053366
 21
-162.2705959123783
 31
0.0
  0
LINE
  5
16762
330
1F
100
AcDbEntity
  8
0
100
AcDbLine
 10
-43.69580233053366
 20
-161.8955959123784
 30
0.0
 11
-44.02459583776142
 21
-161.8955959123784
 31
0.0
  0
LINE
  5
16763
330
1F
100
AcDbEntity
  8
0
100
AcDbLine
 10
-43.69580233053354
 20
-178.1278793769455
 30
0.0
 11
-44.02459583776128
 21
-178.1278793769455
 31
0.0
  0
LINE
  5
16764
330
1F
100
AcDbEntity
  8
0
100
AcDbLine
 10
-44.02459583776141
 20
-161.8955959123784
 30
0.0
 11
-44.39269908414752
 21
-161.8955959123784
 31
0.0
  0
LINE
  5
16765
330
1F
100
AcDbEntity
  8
0
100
AcDbLine
 10
-44.02459583776128
 20
-178.1278793769455
 30
0.0
 11
-44.39269908414738
 21
-178.1278793769455
 31
0.0
  0
LINE
  5
16766
330
1F
100
AcDbEntity
  8
0
100
AcDbLine
 10
-44.73373154066737
 20
-161.8955959123784
 30
0.0
 11
-44.39269908414752
 21
-161.8955959123784
 31
0.0
  0
LINE
  5
16767
330
1F
100
AcDbEntity
  8
0
100
AcDbLine
 10
-44.73373154066723
 20
-178.1278793769455
 30
0.0
 11
-44.39269908414738
 21
-178.1278793769455
 31
0.0
  0
LINE
  5
16768
330
1F
100
AcDbEntity
  8
0
100
AcDbLine
 10
-45.08982869087502
 20
-161.8955959123784
 30
0.0
 11
-44.73373154066737
 21
-161.8955959123784
 31
0.0
  0
LINE
  5
16769
330
1F
100
AcDbEntity
  8
0
100
AcDbLine
 10
-45.08982869087488
 20
-178.1278793769455
 30
0.0
 11
-44.73373154066723
 21
-178.1278793769455
 31
0.0
  0
LINE
  5
1676A
330
1F
100
AcDbEntity
  8
0
100
AcDbLine
 10
-45.10280233053361
 20
-161.8955959123784
 30
0.0
 11
-45.08982869087502
 21
-161.8955959123784
 31
0.0
  0
LINE
  5
1676B
330
1F
100
AcDbEntity
  8
0
100
AcDbLine
 10
-45.10280233053348
 20
-178.1278793769455
 30
0.0
 11
-45.08982869087488
 21
-178.1278793769455
 31
0.0
  0
LINE
  5
1676C
330
1F
100
AcDbEntity
  8
0
100
AcDbLine
 10
-43.38080233053368
 20
-162.3384305580477
 30
0.0
 11
-43.38080233053368
 21
-162.2705959123783
 31
0.0
  0
LINE
  5
1676D
330
1F
100
AcDbEntity
  8
0
100
AcDbLine
 10
-45.10280233053348
 20
-178.1278793769455
 30
0.0
 11
-45.10280233053361
 21
-161.8955959123784
 31
0.0
  0
LINE
  5
1676E
330
1F
100
AcDbEntity
  8
0
100
AcDbLine
 10
-43.68544799982486
 20
-178.1405959123786
 30
0.0
 11
-43.68544799982486
 21
-178.1255959123786
 31
0.0
  0
LINE
  5
1676F
330
1F
100
AcDbEntity
  8
0
100
AcDbLine
 10
-43.68544799982487
 20
-177.7904305580479
 30
0.0
 11
-43.68544799982486
 21
-178.1255959123786
 31
0.0
  0
LINE
  5
16770
330
1F
100
AcDbEntity
  8
0
100
AcDbLine
 10
-43.68544799982487
 20
-177.7904305580479
 30
0.0
 11
-43.68544799982487
 21
-177.7800762273397
 31
0.0
  0
LINE
  5
16771
330
1F
100
AcDbEntity
  8
0
100
AcDbLine
 10
-30.80040862974672
 20
-177.7754305580478
 30
0.0
 11
-43.68080233053302
 21
-177.7754305580478
 31
0.0
  0
LINE
  5
16772
330
1F
100
AcDbEntity
  8
0
100
AcDbLine
 10
-30.80040862974672
 20
-177.7754305580478
 30
0.0
 11
-30.80040862974672
 21
-177.7904305580478
 31
0.0
  0
LINE
  5
16773
330
1F
100
AcDbEntity
  8
0
100
AcDbLine
 10
-30.8004086297467
 20
-178.1255959123785
 30
0.0
 11
-30.80040862974672
 21
-177.7904305580478
 31
0.0
  0
LINE
  5
16774
330
1F
100
AcDbEntity
  8
0
100
AcDbLine
 10
-30.8004086297467
 20
-178.1405959123785
 30
0.0
 11
-43.68544799982486
 21
-178.1405959123786
 31
0.0
  0
LINE
  5
16775
330
1F
100
AcDbEntity
  8
0
100
AcDbLine
 10
-30.8004086297467
 20
-178.1255959123785
 30
0.0
 11
-30.8004086297467
 21
-178.1405959123785
 31
0.0
  0
LINE
  5
16776
330
1F
100
AcDbEntity
  8
0
100
AcDbLine
 10
-43.93241650376189
 20
-178.132800636788
 30
0.0
 11
-43.93241650376189
 21
-178.1278793769455
 31
0.0
  0
LINE
  5
16777
330
1F
100
AcDbEntity
  8
0
100
AcDbLine
 10
-43.84580233053353
 20
-178.1278793769455
 30
0.0
 11
-43.84580233053353
 21
-178.132800636788
 31
0.0
  0
LINE
  5
16778
330
1F
100
AcDbEntity
  8
0
100
AcDbLine
 10
-43.93241650376189
 20
-178.132800636788
 30
0.0
 11
-43.84580233053353
 21
-178.132800636788
 31
0.0
  0
LINE
  5
16779
330
1F
100
AcDbEntity
  8
0
100
AcDbLine
 10
-30.80040862974679
 20
-168.5724699281265
 30
0.0
 11
-30.96389677957087
 21
-168.5724699281265
 31
0.0
  0
LINE
  5
1677A
330
1F
100
AcDbEntity
  8
0
100
AcDbLine
 10
-30.96389677957083
 20
-171.5645959123785
 30
0.0
 11
-30.96389677957087
 21
-168.5724699281265
 31
0.0
  0
LINE
  5
1677B
330
1F
100
AcDbEntity
  8
0
100
AcDbLine
 10
-30.80040862974677
 20
-171.5645959123785
 30
0.0
 11
-30.96389677957083
 21
-171.5645959123785
 31
0.0
  0
LINE
  5
1677C
330
1F
100
AcDbEntity
  8
0
100
AcDbLine
 10
-31.31234455537576
 20
-168.5724699281265
 30
0.0
 11
-30.96389677957087
 21
-168.5724699281265
 31
0.0
  0
LINE
  5
1677D
330
1F
100
AcDbEntity
  8
0
100
AcDbLine
 10
-31.32442677557188
 20
-171.5645959123785
 30
0.0
 11
-30.96389677957083
 21
-171.5645959123785
 31
0.0
  0
LINE
  5
1677E
330
1F
100
AcDbEntity
  8
0
100
AcDbLine
 10
-31.32442677557188
 20
-171.5645959123785
 30
0.0
 11
-31.34240862974666
 21
-171.5645959123785
 31
0.0
  0
LINE
  5
1677F
330
1F
100
AcDbEntity
  8
0
100
AcDbLine
 10
-31.32442677557188
 20
-171.5645959123785
 30
0.0
 11
-31.3244267755719
 21
-168.5979344950557
 31
0.0
  0
LINE
  5
16780
330
1F
100
AcDbEntity
  8
0
100
AcDbLine
 10
-38.52455036202992
 20
-165.7147848887564
 30
0.0
 11
-38.52455036202993
 21
-164.4234463060792
 31
0.0
  0
ARC
  5
16781
330
1F
100
AcDbEntity
  8
0
100
AcDbCircle
 10
-38.39856611006142
 20
-165.7147848887564
 30
0.0
 40
0.1259842519685042
100
AcDbArc
 50
180.0
 51
270.0
  0
LINE
  5
16782
330
1F
100
AcDbEntity
  8
0
100
AcDbLine
 10
-36.85919603132133
 20
-165.8407691407249
 30
0.0
 11
-38.39856611006142
 21
-165.8407691407249
 31
0.0
  0
ARC
  5
16783
330
1F
100
AcDbEntity
  8
0
100
AcDbCircle
 10
-36.85919603132133
 20
-165.7147848887564
 30
0.0
 40
0.1259842519685055
100
AcDbArc
 50
270.0000000000025
 51
0.0
  0
LINE
  5
16784
330
1F
100
AcDbEntity
  8
0
100
AcDbLine
 10
-36.73321177935284
 20
-164.4234463060792
 30
0.0
 11
-36.73321177935283
 21
-165.7147848887564
 31
0.0
  0
ARC
  5
16785
330
1F
100
AcDbEntity
  8
0
100
AcDbCircle
 10
-36.85919603132133
 20
-164.4234463060792
 30
0.0
 40
0.1259842519685027
100
AcDbArc
 50
0.0
 51
90.0
  0
LINE
  5
16786
330
1F
100
AcDbEntity
  8
0
100
AcDbLine
 10
-38.39856611006144
 20
-164.2974620541107
 30
0.0
 11
-36.85919603132135
 21
-164.2974620541107
 31
0.0
  0
ARC
  5
16787
330
1F
100
AcDbEntity
  8
0
100
AcDbCircle
 10
-38.39856611006144
 20
-164.4234463060792
 30
0.0
 40
0.1259842519685042
100
AcDbArc
 50
90.00000000000245
 51
180.0
  0
CIRCLE
  5
16788
330
1F
100
AcDbEntity
  8
0
100
AcDbCircle
 10
-39.61130626754167
 20
-168.2654305580477
 30
0.0
 40
0.409500000000005
  0
LINE
  5
16789
330
1F
100
AcDbEntity
  8
0
100
AcDbLine
 10
-31.56861299671486
 20
-162.3384305580476
 30
0.0
 11
-43.29840862974627
 21
-162.3384305580477
 31
0.0
  0
LINE
  5
1678A
330
1F
100
AcDbEntity
  8
0
100
AcDbLine
 10
-31.24602536054811
 20
-162.3384305580476
 30
0.0
 11
-30.85040862974681
 21
-162.3384305580476
 31
0.0
  0
LINE
  5
1678B
330
1F
100
AcDbEntity
  8
0
100
AcDbLine
 10
-31.24602536054811
 20
-162.3384305580476
 30
0.0
 11
-31.56861299671486
 21
-162.3384305580476
 31
0.0
  0
LINE
  5
1678C
330
1F
100
AcDbEntity
  8
0
100
AcDbLine
 10
-43.29840862974626
 20
-162.3384305580477
 30
0.0
 11
-43.51939363128906
 21
-162.3384305580477
 31
0.0
  0
LINE
  5
1678D
330
1F
100
AcDbEntity
  8
0
100
AcDbLine
 10
-43.65840862974625
 20
-162.3384305580477
 30
0.0
 11
-43.51939363128906
 21
-162.3384305580477
 31
0.0
  0
LINE
  5
1678E
330
1F
100
AcDbEntity
  8
0
100
AcDbLine
 10
-43.65840862974613
 20
-177.7754305580479
 30
0.0
 11
-43.65840862974624
 21
-162.3384305580477
 31
0.0
  0
LINE
  5
1678F
330
1F
100
AcDbEntity
  8
0
100
AcDbLine
 10
-30.8504086297467
 20
-177.7754305580478
 30
0.0
 11
-30.85040862974675
 21
-171.6294305580478
 31
0.0
  0
LINE
  5
16790
330
1F
100
AcDbEntity
  8
0
100
AcDbLine
 10
-30.85040862974676
 20
-168.5724699281264
 30
0.0
 11
-30.85040862974681
 21
-162.3384305580476
 31
0.0
  0
LINE
  5
16791
330
1F
100
AcDbEntity
  8
0
100
AcDbLine
 10
-31.34240862974675
 20
-168.5979344950556
 30
0.0
 11
-31.3123445553758
 21
-168.5979344950556
 31
0.0
  0
LINE
  5
16792
330
1F
100
AcDbEntity
  8
0
100
AcDbLine
 10
-31.34240862974672
 20
-171.6294305580477
 30
0.0
 11
-31.34240862974676
 21
-168.5979344950556
 31
0.0
  0
LINE
  5
16793
330
1F
100
AcDbEntity
  8
0
100
AcDbLine
 10
-31.24602536054804
 20
-171.6294305580478
 30
0.0
 11
-31.34240862974674
 21
-171.6294305580478
 31
0.0
  0
LINE
  5
16794
330
1F
100
AcDbEntity
  8
0
100
AcDbLine
 10
-31.24602536054804
 20
-171.6294305580478
 30
0.0
 11
-30.85040862974675
 21
-171.6294305580478
 31
0.0
  0
CIRCLE
  5
16795
330
1F
100
AcDbEntity
  8
0
100
AcDbCircle
 10
-36.91340862974654
 20
-162.8504305580477
 30
0.0
 40
0.1350000000000012
  0
CIRCLE
  5
16796
330
1F
100
AcDbEntity
  8
0
100
AcDbCircle
 10
-42.75640862974618
 20
-175.0494305580478
 30
0.0
 40
0.4842519685039422
  0
LINE
  5
16797
330
1F
100
AcDbEntity
  8
0
100
AcDbLine
 10
-42.46181644913566
 20
-165.2181864170547
 30
0.0
 11
-42.46215569756303
 21
-165.2339307940352
 31
0.0
  0
LINE
  5
16798
330
1F
100
AcDbEntity
  8
0
100
AcDbLine
 10
-42.46731335763868
 20
-165.233819660513
 30
0.0
 11
-42.46215569756304
 21
-165.2339307940352
 31
0.0
  0
LINE
  5
16799
330
1F
100
AcDbEntity
  8
0
100
AcDbLine
 10
-42.46024742515908
 20
-165.1453686735197
 30
0.0
 11
-42.46058667358645
 21
-165.1611130505003
 31
0.0
  0
LINE
  5
1679A
330
1F
100
AcDbEntity
  8
0
100
AcDbLine
 10
-42.46024742515908
 20
-165.1453686735197
 30
0.0
 11
-42.46540508523472
 21
-165.1452575399974
 31
0.0
  0
LINE
  5
1679B
330
1F
100
AcDbEntity
  8
0
100
AcDbLine
 10
-42.46058667358645
 20
-165.1611130505003
 30
0.0
 11
-42.46181644913566
 21
-165.2181864170547
 31
0.0
  0
LINE
  5
1679C
330
1F
100
AcDbEntity
  8
0
100
AcDbLine
 10
-42.80006909906242
 20
-164.985612713441
 30
0.0
 11
-42.70559650074509
 21
-164.9873291117654
 31
0.0
  0
LINE
  5
1679D
330
1F
100
AcDbEntity
  8
0
100
AcDbLine
 10
-42.70559650074509
 20
-164.9873291117654
 30
0.0
 11
-42.71274816043011
 21
-165.3809649380876
 31
0.0
  0
LINE
  5
1679E
330
1F
100
AcDbEntity
  8
0
100
AcDbLine
 10
-42.71274816043011
 20
-165.3809649380876
 30
0.0
 11
-42.80722075874744
 21
-165.3792485397632
 31
0.0
  0
LINE
  5
1679F
330
1F
100
AcDbEntity
  8
0
100
AcDbLine
 10
-42.80722075874744
 20
-165.3792485397632
 30
0.0
 11
-42.80006909906242
 21
-164.985612713441
 31
0.0
  0
CIRCLE
  5
167A0
330
1F
100
AcDbEntity
  8
0
100
AcDbCircle
 10
-42.75640862974627
 20
-165.1832888257643
 30
0.0
 40
0.2934781791128139
  0
ARC
  5
167A1
330
1F
100
AcDbEntity
  8
0
100
AcDbCircle
 10
-42.75640862974626
 20
-165.0349742089004
 30
0.0
 40
0.3949924697502703
100
AcDbArc
 50
28.58990710681069
 51
151.4100928931839
  0
ARC
  5
167A2
330
1F
100
AcDbEntity
  8
0
100
AcDbCircle
 10
-43.09632467977831
 20
-164.8497236316821
 30
0.0
 40
0.0078740157480316
100
AcDbArc
 50
151.4100928931819
 51
233.9135464710309
  0
LINE
  5
167A3
330
1F
100
AcDbEntity
  8
0
100
AcDbLine
 10
-42.99621002829966
 20
-164.9324357520808
 30
0.0
 11
-43.10096251684459
 21
-164.8560868534563
 31
0.0
  0
ARC
  5
167A4
330
1F
100
AcDbEntity
  8
0
100
AcDbCircle
 10
-42.99157219123338
 20
-164.9260725303066
 30
0.0
 40
0.0078740157480314
100
AcDbArc
 50
233.9135464710309
 51
328.3624242325761
  0
ARC
  5
167A5
330
1F
100
AcDbEntity
  8
0
100
AcDbCircle
 10
-42.75640862974626
 20
-165.0709588001579
 30
0.0
 40
0.2683395462700815
100
AcDbArc
 50
31.93765233635794
 51
148.3624242325873
  0
ARC
  5
167A6
330
1F
100
AcDbEntity
  8
0
100
AcDbCircle
 10
-42.52200710635785
 20
-164.9248428952197
 30
0.0
 40
0.0078740157480315
100
AcDbArc
 50
211.9376523363748
 51
305.4483149829699
  0
LINE
  5
167A7
330
1F
100
AcDbEntity
  8
0
100
AcDbLine
 10
-42.4119258999715
 20
-164.8561381121855
 30
0.0
 11
-42.51744042661513
 21
-164.931257375723
 31
0.0
  0
ARC
  5
167A8
330
1F
100
AcDbEntity
  8
0
100
AcDbCircle
 10
-42.41649257971421
 20
-164.8497236316821
 30
0.0
 40
0.0078740157480317
100
AcDbArc
 50
305.4483149829468
 51
28.58990710681808
  0
CIRCLE
  5
167A9
330
1F
100
AcDbEntity
  8
0
100
AcDbCircle
 10
-42.75640862974626
 20
-165.1832888257643
 30
0.0
 40
0.2992125984252009
  0
CIRCLE
  5
167AA
330
1F
100
AcDbEntity
  8
0
100
AcDbCircle
 10
-42.75640862974626
 20
-165.0691155974178
 30
0.0
 40
0.4803149606299279
  0
CIRCLE
  5
167AB
330
1F
100
AcDbEntity
  8
0
100
AcDbCircle
 10
-42.75640862974626
 20
-165.0691155974178
 30
0.0
 40
0.5236220472441018
  0
CIRCLE
  5
167AC
330
1F
100
AcDbEntity
  8
0
100
AcDbCircle
 10
-38.20568815730549
 20
-168.9210329202525
 30
0.0
 40
0.2284671297992154
  0
CIRCLE
  5
167AD
330
1F
100
AcDbEntity
  8
0
100
AcDbCircle
 10
-41.0169086297463
 20
-167.608828195843
 30
0.0
 40
0.228467129799216
  0
CIRCLE
  5
167AE
330
1F
100
AcDbEntity
  8
0
100
AcDbCircle
 10
-41.01690862974599
 20
-168.9210329202525
 30
0.0
 40
0.2284671297992161
  0
CIRCLE
  5
167AF
330
1F
100
AcDbEntity
  8
0
100
AcDbCircle
 10
-38.204703905337
 20
-167.6088281958431
 30
0.0
 40
0.2284671297992157
  0
LINE
  5
167B0
330
1F
100
AcDbEntity
  8
0
100
AcDbLine
 10
-31.16340469273886
 20
-171.6294305580478
 30
0.0
 11
-31.16340469273886
 21
-171.5645959123784
 31
0.0
  0
LINE
  5
167B1
330
1F
100
AcDbEntity
  8
0
100
AcDbLine
 10
-31.16340469273894
 20
-162.3384305580477
 30
0.0
 11
-31.16340469273894
 21
-162.2705959123782
 31
0.0
  0
LINE
  5
167B2
330
1F
100
AcDbEntity
  8
0
100
AcDbLine
 10
-30.97541256675461
 20
-171.6294305580478
 30
0.0
 11
-30.97541256675461
 21
-171.5645959123784
 31
0.0
  0
LINE
  5
167B3
330
1F
100
AcDbEntity
  8
0
100
AcDbLine
 10
-30.97541256675469
 20
-162.3384305580477
 30
0.0
 11
-30.97541256675469
 21
-162.2705959123782
 31
0.0
  0
LINE
  5
167B4
330
1F
100
AcDbEntity
  8
0
100
AcDbLine
 10
-30.89115305390698
 20
-161.8928400068665
 30
0.0
 11
-30.89115305390698
 21
-161.8955959123784
 31
0.0
  0
LINE
  5
167B5
330
1F
100
AcDbEntity
  8
0
100
AcDbLine
 10
-31.24766420558721
 20
-161.8928400068666
 30
0.0
 11
-31.24766420558721
 21
-161.8955959123784
 31
0.0
  0
ARC
  5
167B6
330
1F
100
AcDbEntity
  8
0
100
AcDbCircle
 10
-30.93052313264715
 20
-161.8928400068665
 30
0.0
 40
0.039370078740157
100
AcDbArc
 50
0.0
 51
41.08667686918645
  0
ARC
  5
167B7
330
1F
100
AcDbEntity
  8
0
100
AcDbCircle
 10
-31.20829412684705
 20
-161.8928400068666
 30
0.0
 40
0.0393700787401579
100
AcDbArc
 50
138.9133231307913
 51
180.0
  0
LINE
  5
167B8
330
1F
100
AcDbEntity
  8
0
100
AcDbLine
 10
-30.35346073033208
 20
-178.1278793769455
 30
0.0
 11
-29.94540862974693
 21
-178.1278793769455
 31
0.0
  0
LINE
  5
167B9
330
1F
100
AcDbEntity
  8
0
100
AcDbLine
 10
-29.94540862974693
 20
-178.2528793769455
 30
0.0
 11
-30.38740862974675
 21
-178.2528793769455
 31
0.0
  0
LINE
  5
167BA
330
1F
100
AcDbEntity
  8
0
100
AcDbLine
 10
-30.38740862974675
 20
-178.2528793769455
 30
0.0
 11
-30.38740862974675
 21
-178.1278793769455
 31
0.0
  0
LINE
  5
167BB
330
1F
100
AcDbEntity
  8
0
100
AcDbLine
 10
-6.537848398028579
 20
-163.1766909345197
 30
0.0
 11
-6.537848398028579
 21
-163.3212410477187
 31
0.0
  0
LINE
  5
167BC
330
1F
100
AcDbEntity
  8
0
100
AcDbLine
 10
-6.577218476768734
 20
-163.3769187470247
 30
0.0
 11
-6.577218476768734
 21
-163.1210132352137
 31
0.0
  0
ARC
  5
167BD
330
1F
100
AcDbEntity
  8
0
100
AcDbCircle
 10
-6.596903516138802
 20
-163.3212410477187
 30
0.0
 40
0.0590551181102355
100
AcDbArc
 50
289.4712206344956
 51
0.0
  0
ARC
  5
167BE
330
1F
100
AcDbEntity
  8
0
100
AcDbCircle
 10
-6.596903516138802
 20
-163.1766909345197
 30
0.0
 40
0.0590551181102353
100
AcDbArc
 50
0.0
 51
70.52877936551647
  0
LINE
  5
167BF
330
1F
100
AcDbEntity
  8
0
100
AcDbLine
 10
-6.65595863424906
 20
-163.3114659911192
 30
0.0
 11
-6.65595863424906
 21
-163.1864659911192
 31
0.0
  0
ARC
  5
167C0
330
1F
100
AcDbEntity
  8
0
100
AcDbCircle
 10
-6.675183320245899
 20
-163.1906982745838
 30
0.0
 40
0.0196850393700784
100
AcDbArc
 50
12.41552730493031
 51
23.56400668047603
  0
ARC
  5
167C1
330
1F
100
AcDbEntity
  8
0
100
AcDbCircle
 10
-6.675183320245899
 20
-163.3072337076546
 30
0.0
 40
0.0196850393700785
100
AcDbArc
 50
336.435993319524
 51
347.584472695093
  0
LINE
  5
167C2
330
1F
100
AcDbEntity
  8
0
100
AcDbLine
 10
-6.577218476768734
 20
-163.3114659911192
 30
0.0
 11
-6.65595863424906
 21
-163.3114659911192
 31
0.0
  0
LINE
  5
167C3
330
1F
100
AcDbEntity
  8
0
100
AcDbLine
 10
-6.577218476768734
 20
-163.1864659911192
 30
0.0
 11
-6.65595863424906
 21
-163.1864659911192
 31
0.0
  0
LINE
  5
167C4
330
1F
100
AcDbEntity
  8
0
100
AcDbLine
 10
-6.537848398028664
 20
-177.1766909345189
 30
0.0
 11
-6.537848398028664
 21
-177.3212410477178
 31
0.0
  0
LINE
  5
167C5
330
1F
100
AcDbEntity
  8
0
100
AcDbLine
 10
-6.577218476768798
 20
-177.3769187470239
 30
0.0
 11
-6.577218476768798
 21
-177.1210132352129
 31
0.0
  0
ARC
  5
167C6
330
1F
100
AcDbEntity
  8
0
100
AcDbCircle
 10
-6.59690351613888
 20
-177.3212410477178
 30
0.0
 40
0.0590551181102337
100
AcDbArc
 50
289.4712206344973
 51
0.0
  0
ARC
  5
167C7
330
1F
100
AcDbEntity
  8
0
100
AcDbCircle
 10
-6.59690351613888
 20
-177.1766909345189
 30
0.0
 40
0.0590551181102333
100
AcDbArc
 50
0.0
 51
70.52877936551396
  0
LINE
  5
167C8
330
1F
100
AcDbEntity
  8
0
100
AcDbLine
 10
-6.655958634249117
 20
-177.3114659911183
 30
0.0
 11
-6.655958634249117
 21
-177.1864659911184
 31
0.0
  0
ARC
  5
167C9
330
1F
100
AcDbEntity
  8
0
100
AcDbCircle
 10
-6.675183320245942
 20
-177.1906982745829
 30
0.0
 40
0.0196850393700777
100
AcDbArc
 50
12.41552730487538
 51
23.56400668018471
  0
ARC
  5
167CA
330
1F
100
AcDbEntity
  8
0
100
AcDbCircle
 10
-6.675183320245942
 20
-177.3072337076538
 30
0.0
 40
0.0196850393700778
100
AcDbArc
 50
336.4359933198153
 51
347.5844726951081
  0
LINE
  5
167CB
330
1F
100
AcDbEntity
  8
0
100
AcDbLine
 10
-6.577218476768798
 20
-177.3114659911183
 30
0.0
 11
-6.655958634249117
 21
-177.3114659911183
 31
0.0
  0
LINE
  5
167CC
330
1F
100
AcDbEntity
  8
0
100
AcDbLine
 10
-6.577218476768798
 20
-177.1864659911184
 30
0.0
 11
-6.655958634249117
 21
-177.1864659911184
 31
0.0
  0
CIRCLE
  5
167CD
330
1F
100
AcDbEntity
  8
0
100
AcDbCircle
 10
-8.062139736608479
 20
-177.8809659911183
 30
0.0
 40
0.0249999999999974
  0
CIRCLE
  5
167CE
330
1F
100
AcDbEntity
  8
0
100
AcDbCircle
 10
-8.062139736608479
 20
-177.8809659911183
 30
0.0
 40
0.1279527559054983
  0
CIRCLE
  5
167CF
330
1F
100
AcDbEntity
  8
0
100
AcDbCircle
 10
-13.06213973660741
 20
-177.8809659911183
 30
0.0
 40
0.0249999999999974
  0
CIRCLE
  5
167D0
330
1F
100
AcDbEntity
  8
0
100
AcDbCircle
 10
-13.06213973660741
 20
-177.8809659911183
 30
0.0
 40
0.1279527559054984
  0
CIRCLE
  5
167D1
330
1F
100
AcDbEntity
  8
0
100
AcDbCircle
 10
-19.06213973660611
 20
-177.8809659911182
 30
0.0
 40
0.0249999999999973
  0
CIRCLE
  5
167D2
330
1F
100
AcDbEntity
  8
0
100
AcDbCircle
 10
-19.06213973660612
 20
-177.8809659911182
 30
0.0
 40
0.1279527559054981
  0
LINE
  5
167D3
330
1F
100
AcDbEntity
  8
0
100
AcDbLine
 10
-6.617769657870979
 20
-177.8086909345188
 30
0.0
 11
-6.617769657870979
 21
-177.9532410477177
 31
0.0
  0
ARC
  5
167D4
330
1F
100
AcDbEntity
  8
0
100
AcDbCircle
 10
-6.676824775981209
 20
-177.9532410477177
 30
0.0
 40
0.0590551181102287
100
AcDbArc
 50
289.471220634487
 51
0.0
  0
ARC
  5
167D5
330
1F
100
AcDbEntity
  8
0
100
AcDbCircle
 10
-6.676824775981202
 20
-177.8086909345188
 30
0.0
 40
0.0590551181102284
100
AcDbArc
 50
0.0
 51
70.52877936551396
  0
CIRCLE
  5
167D6
330
1F
100
AcDbEntity
  8
0
100
AcDbCircle
 10
-21.19413973660556
 20
-163.0599659911192
 30
0.0
 40
0.0249999999999991
  0
CIRCLE
  5
167D7
330
1F
100
AcDbEntity
  8
0
100
AcDbCircle
 10
-21.19413973660556
 20
-163.0599659911192
 30
0.0
 40
0.0779527559055091
  0
CIRCLE
  5
167D8
330
1F
100
AcDbEntity
  8
0
100
AcDbCircle
 10
-21.19413973660556
 20
-166.559965991119
 30
0.0
 40
0.0249999999999991
  0
CIRCLE
  5
167D9
330
1F
100
AcDbEntity
  8
0
100
AcDbCircle
 10
-21.19413973660556
 20
-166.559965991119
 30
0.0
 40
0.0779527559055091
  0
CIRCLE
  5
167DA
330
1F
100
AcDbEntity
  8
0
100
AcDbCircle
 10
-21.19413973660557
 20
-170.0599659911188
 30
0.0
 40
0.0249999999999991
  0
CIRCLE
  5
167DB
330
1F
100
AcDbEntity
  8
0
100
AcDbCircle
 10
-21.19413973660557
 20
-170.0599659911188
 30
0.0
 40
0.0779527559055091
  0
CIRCLE
  5
167DC
330
1F
100
AcDbEntity
  8
0
100
AcDbCircle
 10
-21.19413973660556
 20
-173.5599659911185
 30
0.0
 40
0.0249999999999991
  0
CIRCLE
  5
167DD
330
1F
100
AcDbEntity
  8
0
100
AcDbCircle
 10
-21.19413973660556
 20
-173.5599659911185
 30
0.0
 40
0.0779527559055091
  0
CIRCLE
  5
167DE
330
1F
100
AcDbEntity
  8
0
100
AcDbCircle
 10
-21.19413973660556
 20
-177.0599659911183
 30
0.0
 40
0.0249999999999991
  0
CIRCLE
  5
167DF
330
1F
100
AcDbEntity
  8
0
100
AcDbCircle
 10
-21.19413973660556
 20
-177.0599659911183
 30
0.0
 40
0.0779527559055091
  0
LINE
  5
167E0
330
1F
100
AcDbEntity
  8
0
100
AcDbLine
 10
-6.617769657868798
 20
-162.0586909345199
 30
0.0
 11
-6.617769657868798
 21
-162.2032410477189
 31
0.0
  0
ARC
  5
167E1
330
1F
100
AcDbEntity
  8
0
100
AcDbCircle
 10
-6.676824775979014
 20
-162.2032410477189
 30
0.0
 40
0.0590551181102341
100
AcDbArc
 50
289.4712206344956
 51
0.0
  0
ARC
  5
167E2
330
1F
100
AcDbEntity
  8
0
100
AcDbCircle
 10
-6.676824775979014
 20
-162.0586909345199
 30
0.0
 40
0.0590551181102336
100
AcDbArc
 50
0.0
 51
70.52877936551647
  0
CIRCLE
  5
167E3
330
1F
100
AcDbEntity
  8
0
100
AcDbCircle
 10
-8.062139736608472
 20
-162.1309659911194
 30
0.0
 40
0.0249999999999991
  0
CIRCLE
  5
167E4
330
1F
100
AcDbEntity
  8
0
100
AcDbCircle
 10
-8.062139736608472
 20
-162.1309659911194
 30
0.0
 40
0.1279527559055073
  0
CIRCLE
  5
167E5
330
1F
100
AcDbEntity
  8
0
100
AcDbCircle
 10
-13.06213973660739
 20
-162.1309659911193
 30
0.0
 40
0.0249999999999992
  0
CIRCLE
  5
167E6
330
1F
100
AcDbEntity
  8
0
100
AcDbCircle
 10
-13.06213973660739
 20
-162.1309659911193
 30
0.0
 40
0.1279527559055075
  0
CIRCLE
  5
167E7
330
1F
100
AcDbEntity
  8
0
100
AcDbCircle
 10
-19.06213973660608
 20
-162.1309659911193
 30
0.0
 40
0.0249999999999991
  0
CIRCLE
  5
167E8
330
1F
100
AcDbEntity
  8
0
100
AcDbCircle
 10
-19.0621397366061
 20
-162.1309659911193
 30
0.0
 40
0.1279527559055073
  0
ELLIPSE
  5
167E9
330
1F
100
AcDbEntity
  8
0
100
AcDbEllipse
 10
-22.8486879681807
 20
-178.2778118135156
 30
0.0
 11
0.0000000000000029
 21
-0.2743272540285583
 31
0.0
210
0.0
220
0.0
230
1.0
 40
0.7053595179564715
 41
6.23487179511437
 42
6.331498819245322
  0
ELLIPSE
  5
167EA
330
1F
100
AcDbEntity
  8
0
100
AcDbEllipse
 10
-22.81205944409912
 20
-178.2930411989987
 30
0.0
 11
-0.2768056050204097
 21
-0.0014593770182816
 31
0.0
210
0.0
220
0.0
230
1.0
 40
0.9056798562821006
 41
1.564443649549172
 42
1.626996876518149
  0
ARC
  5
167EB
330
1F
100
AcDbEntity
  8
0
100
AcDbCircle
 10
-22.81213973660322
 20
-178.2778118135156
 30
0.0
 40
0.2791305555555896
100
AcDbArc
 50
252.3089099147231
 51
252.3093824967368
  0
ELLIPSE
  5
167EC
330
1F
100
AcDbEntity
  8
0
100
AcDbEllipse
 10
-21.62611881238905
 20
-178.2778118135432
 30
0.0
 11
0.0000000000001014
 21
-0.2743272540009348
 31
0.0
210
0.0
220
0.0
230
1.0
 40
0.7079540960711341
 41
6.28179108659069
 42
6.284804895695113
  0
ELLIPSE
  5
167ED
330
1F
100
AcDbEntity
  8
0
100
AcDbEllipse
 10
-21.69903548977014
 20
-178.2778118135419
 30
0.0
 11
0.0000000000000028
 21
-0.2743272540022343
 31
0.0
210
0.0
220
0.0
230
1.0
 40
0.7062584497589157
 41
6.281791086591306
 42
6.284804895695812
  0
ELLIPSE
  5
167EE
330
1F
100
AcDbEntity
  8
0
100
AcDbEllipse
 10
-21.62999947684205
 20
-178.2930411989924
 30
0.0
 11
-0.1173551990861747
 21
-0.250701475868875
 31
0.0
210
0.0
220
0.0
230
1.0
 40
0.001085916177175
 41
6.281053151205716
 42
6.285966689352207
  0
ELLIPSE
  5
167EF
330
1F
100
AcDbEntity
  8
0
100
AcDbEllipse
 10
-21.66249442904598
 20
-178.2930411989987
 30
0.0
 11
-0.2768085440364129
 21
-0.0007090137068856
 31
0.0
210
0.0
220
0.0
230
0.9999999999999998
 40
0.905681963450946
 41
1.508138327953216
 42
1.570608684017952
  0
ELLIPSE
  5
167F0
330
1F
100
AcDbEntity
  8
0
100
AcDbEllipse
 10
-21.69506739793312
 20
-178.2930411989934
 30
0.0
 11
0.1173551990804581
 21
-0.2507014758678202
 31
0.0
210
0.0
220
0.0
230
0.9999999999999998
 40
0.0010859161770457
 41
6.280403926748565
 42
6.283044385698277
  0
ARC
  5
167F1
330
1F
100
AcDbEntity
  8
0
100
AcDbCircle
 10
-21.6625334373905
 20
-178.2778118135156
 30
0.0
 40
0.2791305555555883
100
AcDbArc
 50
287.6905805079837
 51
287.6926134323556
  0
POLYLINE
  5
167F2
330
1F
100
AcDbEntity
  8
0
100
AcDb2dPolyline
 66
     1
 10
0.0
 20
0.0
 30
0.0
 70
   128
  0
VERTEX
  5
167F3
330
167F2
100
AcDbEntity
  8
0
100
AcDbVertex
100
AcDb2dVertex
 10
-21.63618148612536
 20
-178.5518189675008
 30
0.0
  0
VERTEX
  5
167F4
330
167F2
100
AcDbEntity
  8
0
100
AcDbVertex
100
AcDb2dVertex
 10
-21.63658222407469
 20
-178.551467440895
 30
0.0
  0
VERTEX
  5
167F5
330
167F2
100
AcDbEntity
  8
0
100
AcDbVertex
100
AcDb2dVertex
 10
-21.63698304536872
 20
-178.5511157734908
 30
0.0
  0
VERTEX
  5
167F6
330
167F2
100
AcDbEntity
  8
0
100
AcDbVertex
100
AcDb2dVertex
 10
-21.63738394707448
 20
-178.5507639887547
 30
0.0
  0
VERTEX
  5
167F7
330
167F2
100
AcDbEntity
  8
0
100
AcDbVertex
100
AcDb2dVertex
 10
-21.63778491755438
 20
-178.5504120749534
 30
0.0
  0
VERTEX
  5
167F8
330
167F2
100
AcDbEntity
  8
0
100
AcDbVertex
100
AcDb2dVertex
 10
-21.63818595690248
 20
-178.5500600555532
 30
0.0
  0
VERTEX
  5
167F9
330
167F2
100
AcDbEntity
  8
0
100
AcDbVertex
100
AcDb2dVertex
 10
-21.63858705338709
 20
-178.5497079070879
 30
0.0
  0
VERTEX
  5
167FA
330
167F2
100
AcDbEntity
  8
0
100
AcDbVertex
100
AcDb2dVertex
 10
-21.63898820705523
 20
-178.5493556647571
 30
0.0
  0
VERTEX
  5
167FB
330
167F2
100
AcDbEntity
  8
0
100
AcDbVertex
100
AcDb2dVertex
 10
-21.6393894062693
 20
-178.5490033050942
 30
0.0
  0
VERTEX
  5
167FC
330
167F2
100
AcDbEntity
  8
0
100
AcDbVertex
100
AcDb2dVertex
 10
-21.63979064814339
 20
-178.548650863299
 30
0.0
  0
VERTEX
  5
167FD
330
167F2
100
AcDbEntity
  8
0
100
AcDbVertex
100
AcDb2dVertex
 10
-21.64019192543926
 20
-178.5482983276382
 30
0.0
  0
VERTEX
  5
167FE
330
167F2
100
AcDbEntity
  8
0
100
AcDbVertex
100
AcDb2dVertex
 10
-21.64059323224406
 20
-178.5479456981118
 30
0.0
  0
VERTEX
  5
167FF
330
167F2
100
AcDbEntity
  8
0
100
AcDbVertex
100
AcDb2dVertex
 10
-21.64099456283302
 20
-178.547592986453
 30
0.0
  0
VERTEX
  5
16800
330
167F2
100
AcDbEntity
  8
0
100
AcDbVertex
100
AcDb2dVertex
 10
-21.64139590992086
 20
-178.547240204395
 30
0.0
  0
VERTEX
  5
16801
330
167F2
100
AcDbEntity
  8
0
100
AcDbVertex
100
AcDb2dVertex
 10
-21.6417972691082
 20
-178.5468873519379
 30
0.0
  0
VERTEX
  5
16802
330
167F2
100
AcDbEntity
  8
0
100
AcDbVertex
100
AcDb2dVertex
 10
-21.64219863173739
 20
-178.5465344290816
 30
0.0
  0
VERTEX
  5
16803
330
167F2
100
AcDbEntity
  8
0
100
AcDbVertex
100
AcDb2dVertex
 10
-21.64259999482847
 20
-178.5461814475592
 30
0.0
  0
VERTEX
  5
16804
330
167F2
100
AcDbEntity
  8
0
100
AcDbVertex
100
AcDb2dVertex
 10
-21.64300134972376
 20
-178.5458284073709
 30
0.0
  0
VERTEX
  5
16805
330
167F2
100
AcDbEntity
  8
0
100
AcDbVertex
100
AcDb2dVertex
 10
-21.64340269207091
 20
-178.5454753202498
 30
0.0
  0
VERTEX
  5
16806
330
167F2
100
AcDbEntity
  8
0
100
AcDbVertex
100
AcDb2dVertex
 10
-21.64380401453762
 20
-178.5451221861959
 30
0.0
  0
VERTEX
  5
16807
330
167F2
100
AcDbEntity
  8
0
100
AcDbVertex
100
AcDb2dVertex
 10
-21.64420531139913
 20
-178.5447690169424
 30
0.0
  0
VERTEX
  5
16808
330
167F2
100
AcDbEntity
  8
0
100
AcDbVertex
100
AcDb2dVertex
 10
-21.64460657820905
 20
-178.5444158124894
 30
0.0
  0
VERTEX
  5
16809
330
167F2
100
AcDbEntity
  8
0
100
AcDbVertex
100
AcDb2dVertex
 10
-21.64500780626265
 20
-178.5440625728367
 30
0.0
  0
VERTEX
  5
1680A
330
167F2
100
AcDbEntity
  8
0
100
AcDbVertex
100
AcDb2dVertex
 10
-21.6454089898352
 20
-178.5437093097176
 30
0.0
  0
VERTEX
  5
1680B
330
167F2
100
AcDbEntity
  8
0
100
AcDbVertex
100
AcDb2dVertex
 10
-21.64581012443326
 20
-178.5433560348653
 30
0.0
  0
SEQEND
  5
1680C
330
167F2
100
AcDbEntity
  8
0
  0
ELLIPSE
  5
1680D
330
1F
100
AcDbEntity
  8
0
100
AcDbEllipse
 10
-21.6266643360111
 20
-178.2778118135157
 30
0.0
 11
-0.0000000000000068
 21
-0.2743272540285768
 31
0.0
210
0.0
220
0.0
230
1.0
 40
0.7183536922032099
 41
6.23487179511437
 42
6.286199312348394
  0
ELLIPSE
  5
1680E
330
1F
100
AcDbEntity
  8
0
100
AcDbEllipse
 10
-21.66209907040519
 20
-178.2778118135157
 30
0.0
 11
0.0000000000049951
 21
-0.2778128633186982
 31
0.0
210
0.0
220
0.0
230
1.0
 40
0.9998714457421408
 41
0.1657119807470089
 42
0.308143132654326
  0
ELLIPSE
  5
1680F
330
1F
100
AcDbEntity
  8
0
100
AcDbEllipse
 10
-21.62549518272321
 20
-178.2778118135157
 30
0.0
 11
0.0000000000000969
 21
-0.2743272540285588
 31
0.0
210
0.0
220
0.0
230
1.0
 40
0.6956780669949202
 41
6.234871795113838
 42
6.331498819244814
  0
POLYLINE
  5
16810
330
1F
100
AcDbEntity
  8
0
100
AcDb2dPolyline
 66
     1
 10
0.0
 20
0.0
 30
0.0
 70
   128
  0
VERTEX
  5
16811
330
16810
100
AcDbEntity
  8
0
100
AcDbVertex
100
AcDb2dVertex
 10
-21.63471191353672
 20
-178.5518189675008
 30
0.0
  0
VERTEX
  5
16812
330
16810
100
AcDbEntity
  8
0
100
AcDbVertex
100
AcDb2dVertex
 10
-21.63512121995408
 20
-178.5514646835935
 30
0.0
  0
VERTEX
  5
16813
330
16810
100
AcDbEntity
  8
0
100
AcDbVertex
100
AcDb2dVertex
 10
-21.63553060727041
 20
-178.551110270621
 30
0.0
  0
VERTEX
  5
16814
330
16810
100
AcDbEntity
  8
0
100
AcDbVertex
100
AcDb2dVertex
 10
-21.6359400725528
 20
-178.5507557285834
 30
0.0
  0
VERTEX
  5
16815
330
16810
100
AcDbEntity
  8
0
100
AcDbVertex
100
AcDb2dVertex
 10
-21.63634960681434
 20
-178.5504010574806
 30
0.0
  0
VERTEX
  5
16816
330
16810
100
AcDbEntity
  8
0
100
AcDbVertex
100
AcDb2dVertex
 10
-21.63675920716914
 20
-178.5500462690458
 30
0.0
  0
VERTEX
  5
16817
330
16810
100
AcDbEntity
  8
0
100
AcDbVertex
100
AcDb2dVertex
 10
-21.63716886472437
 20
-178.5496913750123
 30
0.0
  0
VERTEX
  5
16818
330
16810
100
AcDbEntity
  8
0
100
AcDbVertex
100
AcDb2dVertex
 10
-21.63757857356715
 20
-178.5493363636467
 30
0.0
  0
VERTEX
  5
16819
330
16810
100
AcDbEntity
  8
0
100
AcDbVertex
100
AcDb2dVertex
 10
-21.63798832778461
 20
-178.5489812466824
 30
0.0
  0
VERTEX
  5
1681A
330
16810
100
AcDbEntity
  8
0
100
AcDbVertex
100
AcDb2dVertex
 10
-21.63839811995039
 20
-178.5486260358525
 30
0.0
  0
VERTEX
  5
1681B
330
16810
100
AcDbEntity
  8
0
100
AcDbVertex
100
AcDb2dVertex
 10
-21.63880794561804
 20
-178.548270731157
 30
0.0
  0
VERTEX
  5
1681C
330
16810
100
AcDbEntity
  8
0
100
AcDbVertex
100
AcDb2dVertex
 10
-21.63921779594178
 20
-178.5479153325959
 30
0.0
  0
VERTEX
  5
1681D
330
16810
100
AcDbEntity
  8
0
100
AcDbVertex
100
AcDb2dVertex
 10
-21.63962766652223
 20
-178.5475598519024
 30
0.0
  0
VERTEX
  5
1681E
330
16810
100
AcDbEntity
  8
0
100
AcDbVertex
100
AcDb2dVertex
 10
-21.64003754983894
 20
-178.5472043008098
 30
0.0
  0
VERTEX
  5
1681F
330
16810
100
AcDbEntity
  8
0
100
AcDbVertex
100
AcDb2dVertex
 10
-21.64044744158661
 20
-178.546848679318
 30
0.0
  0
VERTEX
  5
16820
330
16810
100
AcDbEntity
  8
0
100
AcDbVertex
100
AcDb2dVertex
 10
-21.64085733277833
 20
-178.546492987427
 30
0.0
  0
VERTEX
  5
16821
330
16810
100
AcDbEntity
  8
0
100
AcDbVertex
100
AcDb2dVertex
 10
-21.64126721759526
 20
-178.54613723687
 30
0.0
  0
VERTEX
  5
16822
330
16810
100
AcDbEntity
  8
0
100
AcDbVertex
100
AcDb2dVertex
 10
-21.64167709149699
 20
-178.545781427647
 30
0.0
  0
VERTEX
  5
16823
330
16810
100
AcDbEntity
  8
0
100
AcDbVertex
100
AcDb2dVertex
 10
-21.6420869456847
 20
-178.5454255714912
 30
0.0
  0
VERTEX
  5
16824
330
16810
100
AcDbEntity
  8
0
100
AcDbVertex
100
AcDb2dVertex
 10
-21.64249677566495
 20
-178.5450696684026
 30
0.0
  0
VERTEX
  5
16825
330
16810
100
AcDbEntity
  8
0
100
AcDbVertex
100
AcDb2dVertex
 10
-21.64290657405839
 20
-178.5447137301144
 30
0.0
  0
VERTEX
  5
16826
330
16810
100
AcDbEntity
  8
0
100
AcDbVertex
100
AcDb2dVertex
 10
-21.64331633353274
 20
-178.5443577566267
 30
0.0
  0
VERTEX
  5
16827
330
16810
100
AcDbEntity
  8
0
100
AcDbVertex
100
AcDb2dVertex
 10
-21.64372605101395
 20
-178.5440017479393
 30
0.0
  0
VERTEX
  5
16828
330
16810
100
AcDbEntity
  8
0
100
AcDbVertex
100
AcDb2dVertex
 10
-21.64413571765626
 20
-178.5436457157856
 30
0.0
  0
VERTEX
  5
16829
330
16810
100
AcDbEntity
  8
0
100
AcDbVertex
100
AcDb2dVertex
 10
-21.64454532759379
 20
-178.5432896718986
 30
0.0
  0
SEQEND
  5
1682A
330
16810
100
AcDbEntity
  8
0
  0
ELLIPSE
  5
1682B
330
1F
100
AcDbEntity
  8
0
100
AcDbEllipse
 10
-21.63544669995305
 20
-178.2778118135157
 30
0.0
 11
0.0000000000000509
 21
-0.2778128633186994
 31
0.0
210
0.0
220
0.0
230
1.0
 40
0.0160340883524272
 41
0.1657119807654051
 42
0.3081431326727974
  0
ELLIPSE
  5
1682C
330
1F
100
AcDbEntity
  8
0
100
AcDbEllipse
 10
-21.68962017481913
 20
-178.2778118135157
 30
0.0
 11
0.0000000000000509
 21
-0.2778128633186978
 31
0.0
210
0.0
220
0.0
230
1.0
 40
0.0160340883524271
 41
0.1657119807653302
 42
0.3081431326727282
  0
POLYLINE
  5
1682D
330
1F
100
AcDbEntity
  8
0
100
AcDb2dPolyline
 66
     1
 10
0.0
 20
0.0
 30
0.0
 70
   128
  0
VERTEX
  5
1682E
330
1682D
100
AcDbEntity
  8
0
100
AcDbVertex
100
AcDb2dVertex
 10
-21.68888538864671
 20
-178.5518189675008
 30
0.0
  0
VERTEX
  5
1682F
330
1682D
100
AcDbEntity
  8
0
100
AcDbVertex
100
AcDb2dVertex
 10
-21.68847806073187
 20
-178.5514616564285
 30
0.0
  0
VERTEX
  5
16830
330
1682D
100
AcDbEntity
  8
0
100
AcDbVertex
100
AcDb2dVertex
 10
-21.68807064649241
 20
-178.551104216291
 30
0.0
  0
VERTEX
  5
16831
330
1682D
100
AcDbEntity
  8
0
100
AcDbVertex
100
AcDb2dVertex
 10
-21.68766315179417
 20
-178.5507466353551
 30
0.0
  0
VERTEX
  5
16832
330
1682D
100
AcDbEntity
  8
0
100
AcDbVertex
100
AcDb2dVertex
 10
-21.68725558236187
 20
-178.5503889253541
 30
0.0
  0
VERTEX
  5
16833
330
1682D
100
AcDbEntity
  8
0
100
AcDbVertex
100
AcDb2dVertex
 10
-21.68684794410841
 20
-178.5500311097543
 30
0.0
  0
VERTEX
  5
16834
330
1682D
100
AcDbEntity
  8
0
100
AcDbVertex
100
AcDb2dVertex
 10
-21.68644024569147
 20
-178.5496731650893
 30
0.0
  0
VERTEX
  5
16835
330
1682D
100
AcDbEntity
  8
0
100
AcDbVertex
100
AcDb2dVertex
 10
-21.68603249146336
 20
-178.5493151148255
 30
0.0
  0
VERTEX
  5
16836
330
1682D
100
AcDbEntity
  8
0
100
AcDbVertex
100
AcDb2dVertex
 10
-21.68562468870937
 20
-178.548956958963
 30
0.0
  0
VERTEX
  5
16837
330
1682D
100
AcDbEntity
  8
0
100
AcDbVertex
100
AcDb2dVertex
 10
-21.6852168447148
 20
-178.5485986975016
 30
0.0
  0
VERTEX
  5
16838
330
1682D
100
AcDbEntity
  8
0
100
AcDbVertex
100
AcDb2dVertex
 10
-21.68480896383198
 20
-178.5482403421747
 30
0.0
  0
VERTEX
  5
16839
330
1682D
100
AcDbEntity
  8
0
100
AcDbVertex
100
AcDb2dVertex
 10
-21.68440105325212
 20
-178.5478819047154
 30
0.0
  0
VERTEX
  5
1683A
330
1682D
100
AcDbEntity
  8
0
100
AcDbVertex
100
AcDb2dVertex
 10
-21.68399312035455
 20
-178.5475233851237
 30
0.0
  0
VERTEX
  5
1683B
330
1682D
100
AcDbEntity
  8
0
100
AcDbVertex
100
AcDb2dVertex
 10
-21.68358517091107
 20
-178.5471647833997
 30
0.0
  0
VERTEX
  5
1683C
330
1682D
100
AcDbEntity
  8
0
100
AcDbVertex
100
AcDb2dVertex
 10
-21.6831772121599
 20
-178.5468061112764
 30
0.0
  0
VERTEX
  5
1683D
330
1682D
100
AcDbEntity
  8
0
100
AcDbVertex
100
AcDb2dVertex
 10
-21.68276924850044
 20
-178.546447368754
 30
0.0
  0
VERTEX
  5
1683E
330
1682D
100
AcDbEntity
  8
0
100
AcDbVertex
100
AcDb2dVertex
 10
-21.6823612871709
 20
-178.5460885675655
 30
0.0
  0
VERTEX
  5
1683F
330
1682D
100
AcDbEntity
  8
0
100
AcDbVertex
100
AcDb2dVertex
 10
-21.68195333545658
 20
-178.5457297077111
 30
0.0
  0
VERTEX
  5
16840
330
1682D
100
AcDbEntity
  8
0
100
AcDbVertex
100
AcDb2dVertex
 10
-21.68154539912926
 20
-178.5453708009239
 30
0.0
  0
VERTEX
  5
16841
330
1682D
100
AcDbEntity
  8
0
100
AcDbVertex
100
AcDb2dVertex
 10
-21.68113748552123
 20
-178.5450118589371
 30
0.0
  0
VERTEX
  5
16842
330
1682D
100
AcDbEntity
  8
0
100
AcDbVertex
100
AcDb2dVertex
 10
-21.6807295988908
 20
-178.5446528582843
 30
0.0
  0
VERTEX
  5
16843
330
1682D
100
AcDbEntity
  8
0
100
AcDbVertex
100
AcDb2dVertex
 10
-21.68032174661729
 20
-178.5442938341651
 30
0.0
  0
VERTEX
  5
16844
330
1682D
100
AcDbEntity
  8
0
100
AcDbVertex
100
AcDb2dVertex
 10
-21.67991393740539
 20
-178.5439347865795
 30
0.0
  0
VERTEX
  5
16845
330
1682D
100
AcDbEntity
  8
0
100
AcDbVertex
100
AcDb2dVertex
 10
-21.67950617404696
 20
-178.5435757037943
 30
0.0
  0
VERTEX
  5
16846
330
1682D
100
AcDbEntity
  8
0
100
AcDbVertex
100
AcDb2dVertex
 10
-21.67909846538775
 20
-178.543216609276
 30
0.0
  0
SEQEND
  5
16847
330
1682D
100
AcDbEntity
  8
0
  0
ELLIPSE
  5
16848
330
1F
100
AcDbEntity
  8
0
100
AcDbEllipse
 10
-21.69840253876109
 20
-178.2778118135157
 30
0.0
 11
0.000000000000001
 21
-0.2743272540285578
 31
0.0
210
0.0
220
0.0
230
1.0
 40
0.7183536922032101
 41
6.234871795114353
 42
6.331498819245316
  0
ELLIPSE
  5
16849
330
1F
100
AcDbEntity
  8
0
100
AcDbEllipse
 10
-21.66209907040519
 20
-178.2778118135157
 30
0.0
 11
0.0000000000048846
 21
-0.277812863318698
 31
0.0
210
0.0
220
0.0
230
1.0
 40
0.9998714457421408
 41
5.975042174490051
 42
6.117473326397375
  0
ELLIPSE
  5
1684A
330
1F
100
AcDbEntity
  8
0
100
AcDbEllipse
 10
-21.66296780436698
 20
-178.2778118135157
 30
0.0
 11
0.0000000000048739
 21
-0.2778128633186969
 31
0.0
210
0.0
220
0.0
230
1.0
 40
0.9998714457421408
 41
5.977757161690172
 42
6.117473326397393
  0
LINE
  5
1684B
330
1F
100
AcDbEntity
  8
0
100
AcDbLine
 10
-21.70878842218431
 20
-178.5518189675008
 30
0.0
 11
-21.7087212584449
 21
-178.5516836837303
 31
0.0
  0
ELLIPSE
  5
1684C
330
1F
100
AcDbEntity
  8
0
100
AcDbEllipse
 10
-21.69957169204899
 20
-178.2778118135157
 30
0.0
 11
0.000000000000107
 21
-0.2743272540285714
 31
0.0
210
0.0
220
0.0
230
1.0
 40
0.6956780669949198
 41
6.234871795113846
 42
6.286199312347856
  0
ELLIPSE
  5
1684D
330
1F
100
AcDbEntity
  8
0
100
AcDbEllipse
 10
-21.66201178461324
 20
-178.2930411989988
 30
0.0
 11
0.2766472085860187
 21
0.0094760083142222
 31
0.0
210
0.0
220
0.0
230
0.9999999999999998
 40
0.9055661851034397
 41
4.619034530407057
 42
4.739377330542088
  0
ELLIPSE
  5
1684E
330
1F
100
AcDbEntity
  8
0
100
AcDbEllipse
 10
-21.63000363583515
 20
-178.2930411989988
 30
0.0
 11
-0.1173675059227107
 21
-0.2506957145734534
 31
0.0
210
0.0
220
0.0
230
1.0
 40
0.0145217950594256
 41
0.0018847192171414
 42
0.1048213727971525
  0
ELLIPSE
  5
1684F
330
1F
100
AcDbEntity
  8
0
100
AcDbEllipse
 10
-21.66305509015892
 20
-178.2930411989988
 30
0.0
 11
-0.276647208586017
 21
0.0094760083141199
 31
0.0
210
0.0
220
0.0
230
1.0
 40
0.9055661851032986
 41
1.510580454042051
 42
1.706626153420371
  0
ELLIPSE
  5
16850
330
1F
100
AcDbEntity
  8
0
100
AcDbEllipse
 10
-21.69506323893702
 20
-178.2930411989988
 30
0.0
 11
0.1173675059228015
 21
-0.250695714573427
 31
0.0
210
0.0
220
0.0
230
1.0
 40
0.0145217950595751
 41
6.188133297429763
 42
6.374409633760952
  0
LINE
  5
16851
330
1F
100
AcDbEntity
  8
0
100
AcDbLine
 10
-21.58053343738612
 20
-178.2528793769456
 30
0.0
 11
-21.58053343738612
 21
-178.2529659911185
 31
0.0
  0
LINE
  5
16852
330
1F
100
AcDbEntity
  8
0
100
AcDbLine
 10
-21.7445334373861
 20
-178.2528793769456
 30
0.0
 11
-21.74453343738609
 21
-178.2529659911185
 31
0.0
  0
ARC
  5
16853
330
1F
100
AcDbEntity
  8
0
100
AcDbCircle
 10
-21.66253343738609
 20
-178.2778118135157
 30
0.0
 40
0.2791305555555828
100
AcDbArc
 50
287.6926134314975
 51
303.5563575461651
  0
ARC
  5
16854
330
1F
100
AcDbEntity
  8
0
100
AcDbCircle
 10
-21.66253343738609
 20
-178.2778118135157
 30
0.0
 40
0.279130555555589
100
AcDbArc
 50
236.4436424538555
 51
252.3073865685238
  0
LINE
  5
16855
330
1F
100
AcDbEntity
  8
0
100
AcDbLine
 10
-21.50153343738605
 20
-178.4419423690713
 30
0.0
 11
-21.50153343738604
 21
-178.4979230362602
 31
0.0
  0
LINE
  5
16856
330
1F
100
AcDbEntity
  8
0
100
AcDbLine
 10
-21.82353343738608
 20
-178.4419423690713
 30
0.0
 11
-21.82353343738605
 21
-178.4979230362603
 31
0.0
  0
ARC
  5
16857
330
1F
100
AcDbEntity
  8
0
100
AcDbCircle
 10
-21.80853343738605
 20
-178.4979230362603
 30
0.0
 40
0.0150000000000014
100
AcDbArc
 50
180.0
 51
236.4436424538615
  0
ARC
  5
16858
330
1F
100
AcDbEntity
  8
0
100
AcDbCircle
 10
-21.51653343738604
 20
-178.4979230362602
 30
0.0
 40
0.015000000000002
100
AcDbArc
 50
303.556357546156
 51
0.0
  0
LINE
  5
16859
330
1F
100
AcDbEntity
  8
0
100
AcDbLine
 10
-22.76874451512936
 20
-177.7074423690712
 30
0.0
 11
-22.84425399966876
 21
-177.7074423690712
 31
0.0
  0
LINE
  5
1685A
330
1F
100
AcDbEntity
  8
0
100
AcDbLine
 10
-22.84425399966876
 20
-177.6919423690712
 30
0.0
 11
-22.76874451512934
 21
-177.6919423690712
 31
0.0
  0
ELLIPSE
  5
1685B
330
1F
100
AcDbEntity
  8
0
100
AcDbEllipse
 10
-22.77538743596593
 20
-178.2778118135157
 30
0.0
 11
-0.0000000000000051
 21
-0.274327254028605
 31
0.0
210
0.0
220
0.0
230
1.0
 40
0.7013595867218375
 41
6.281663799216666
 42
6.331498819245313
  0
LINE
  5
1685C
330
1F
100
AcDbEntity
  8
0
100
AcDbLine
 10
-22.76609543389034
 20
-178.5518189675008
 30
0.0
 11
-22.76612863414744
 21
-178.5517508562876
 31
0.0
  0
ELLIPSE
  5
1685D
330
1F
100
AcDbEntity
  8
0
100
AcDbEllipse
 10
-22.81192044139354
 20
-178.2778118135157
 30
0.0
 11
0.0000000000010892
 21
-0.2778128633186999
 31
0.0
210
0.0
220
0.0
230
1.0
 40
0.9999672349882828
 41
0.1657119807610838
 42
0.3067372649254756
  0
ELLIPSE
  5
1685E
330
1F
100
AcDbEntity
  8
0
100
AcDbEllipse
 10
-22.81235903180312
 20
-178.2778118135157
 30
0.0
 11
0.0000000000007402
 21
-0.2778128633186981
 31
0.0
210
0.0
220
0.0
230
1.0
 40
0.9999672349882828
 41
0.1657119807623246
 42
0.3081431326696595
  0
ELLIPSE
  5
1685F
330
1F
100
AcDbEntity
  8
0
100
AcDbEllipse
 10
-22.77597769655426
 20
-178.2778118135157
 30
0.0
 11
0.0000000000001018
 21
-0.2743272540285587
 31
0.0
210
0.0
220
0.0
230
1.0
 40
0.7128076389273148
 41
6.234871795113836
 42
6.331498819244808
  0
POLYLINE
  5
16860
330
1F
100
AcDbEntity
  8
0
100
AcDb2dPolyline
 66
     1
 10
0.0
 20
0.0
 30
0.0
 70
   128
  0
VERTEX
  5
16861
330
16860
100
AcDbEntity
  8
0
100
AcDbVertex
100
AcDb2dVertex
 10
-22.78542136946866
 20
-178.5518189675008
 30
0.0
  0
VERTEX
  5
16862
330
16860
100
AcDbEntity
  8
0
100
AcDbVertex
100
AcDb2dVertex
 10
-22.78582921276453
 20
-178.5514624308195
 30
0.0
  0
VERTEX
  5
16863
330
16860
100
AcDbEntity
  8
0
100
AcDbVertex
100
AcDb2dVertex
 10
-22.78623713880747
 20
-178.5511057533399
 30
0.0
  0
VERTEX
  5
16864
330
16860
100
AcDbEntity
  8
0
100
AcDbVertex
100
AcDb2dVertex
 10
-22.78664514762122
 20
-178.5507489467951
 30
0.0
  0
VERTEX
  5
16865
330
16860
100
AcDbEntity
  8
0
100
AcDbVertex
100
AcDb2dVertex
 10
-22.7870532304774
 20
-178.5503920111851
 30
0.0
  0
VERTEX
  5
16866
330
16860
100
AcDbEntity
  8
0
100
AcDbVertex
100
AcDb2dVertex
 10
-22.78746137855266
 20
-178.5500349582432
 30
0.0
  0
VERTEX
  5
16867
330
16860
100
AcDbEntity
  8
0
100
AcDbVertex
100
AcDb2dVertex
 10
-22.78786958605184
 20
-178.5496777879692
 30
0.0
  0
VERTEX
  5
16868
330
16860
100
AcDbEntity
  8
0
100
AcDbVertex
100
AcDb2dVertex
 10
-22.78827784857512
 20
-178.5493205120965
 30
0.0
  0
VERTEX
  5
16869
330
16860
100
AcDbEntity
  8
0
100
AcDbVertex
100
AcDb2dVertex
 10
-22.78868616032731
 20
-178.548963130625
 30
0.0
  0
VERTEX
  5
1686A
330
16860
100
AcDbEntity
  8
0
100
AcDbVertex
100
AcDb2dVertex
 10
-22.78909451101849
 20
-178.5486056435547
 30
0.0
  0
VERTEX
  5
1686B
330
16860
100
AcDbEntity
  8
0
100
AcDbVertex
100
AcDb2dVertex
 10
-22.78950289922953
 20
-178.5482480626189
 30
0.0
  0
VERTEX
  5
1686C
330
16860
100
AcDbEntity
  8
0
100
AcDbVertex
100
AcDb2dVertex
 10
-22.78991131474173
 20
-178.5478903995506
 30
0.0
  0
VERTEX
  5
1686D
330
16860
100
AcDbEntity
  8
0
100
AcDbVertex
100
AcDb2dVertex
 10
-22.79031975171239
 20
-178.54753265435
 30
0.0
  0
VERTEX
  5
1686E
330
16860
100
AcDbEntity
  8
0
100
AcDbVertex
100
AcDb2dVertex
 10
-22.79072820576548
 20
-178.547174827017
 30
0.0
  0
VERTEX
  5
1686F
330
16860
100
AcDbEntity
  8
0
100
AcDbVertex
100
AcDb2dVertex
 10
-22.79113666812512
 20
-178.5468169292848
 30
0.0
  0
VERTEX
  5
16870
330
16860
100
AcDbEntity
  8
0
100
AcDbVertex
100
AcDb2dVertex
 10
-22.79154513294866
 20
-178.5464589611534
 30
0.0
  0
VERTEX
  5
16871
330
16860
100
AcDbEntity
  8
0
100
AcDbVertex
100
AcDb2dVertex
 10
-22.79195359588377
 20
-178.546100934356
 30
0.0
  0
VERTEX
  5
16872
330
16860
100
AcDbEntity
  8
0
100
AcDbVertex
100
AcDb2dVertex
 10
-22.79236204815459
 20
-178.5457428606259
 30
0.0
  0
VERTEX
  5
16873
330
16860
100
AcDbEntity
  8
0
100
AcDbVertex
100
AcDb2dVertex
 10
-22.79277048391847
 20
-178.5453847282297
 30
0.0
  0
VERTEX
  5
16874
330
16860
100
AcDbEntity
  8
0
100
AcDbVertex
100
AcDb2dVertex
 10
-22.79317889735649
 20
-178.5450265489007
 30
0.0
  0
VERTEX
  5
16875
330
16860
100
AcDbEntity
  8
0
100
AcDbVertex
100
AcDb2dVertex
 10
-22.79358728260223
 20
-178.5446683343722
 30
0.0
  0
VERTEX
  5
16876
330
16860
100
AcDbEntity
  8
0
100
AcDbVertex
100
AcDb2dVertex
 10
-22.79399563087984
 20
-178.5443100846441
 30
0.0
  0
VERTEX
  5
16877
330
16860
100
AcDbEntity
  8
0
100
AcDbVertex
100
AcDb2dVertex
 10
-22.79440393932734
 20
-178.5439517997163
 30
0.0
  0
VERTEX
  5
16878
330
16860
100
AcDbEntity
  8
0
100
AcDbVertex
100
AcDb2dVertex
 10
-22.79481219767853
 20
-178.5435935030554
 30
0.0
  0
VERTEX
  5
16879
330
16860
100
AcDbEntity
  8
0
100
AcDbVertex
100
AcDb2dVertex
 10
-22.79522040158107
 20
-178.5432351829281
 30
0.0
  0
SEQEND
  5
1687A
330
16860
100
AcDbEntity
  8
0
  0
ELLIPSE
  5
1687B
330
1F
100
AcDbEntity
  8
0
100
AcDbEllipse
 10
-22.78505040421354
 20
-178.2778118135157
 30
0.0
 11
0.0000000000000534
 21
-0.2778128633186992
 31
0.0
210
0.0
220
0.0
230
1.0
 40
0.0080949953458693
 41
5.975042174504151
 42
6.117473326410044
  0
ELLIPSE
  5
1687C
330
1F
100
AcDbEntity
  8
0
100
AcDbEllipse
 10
-22.83922906898312
 20
-178.2778118135157
 30
0.0
 11
0.0000000000000534
 21
-0.2778128633186975
 31
0.0
210
0.0
220
0.0
230
1.0
 40
0.0080949953458693
 41
5.975042174512299
 42
6.117473326418282
  0
POLYLINE
  5
1687D
330
1F
100
AcDbEntity
  8
0
100
AcDb2dPolyline
 66
     1
 10
0.0
 20
0.0
 30
0.0
 70
   128
  0
VERTEX
  5
1687E
330
1687D
100
AcDbEntity
  8
0
100
AcDbVertex
100
AcDb2dVertex
 10
-22.83960003448217
 20
-178.5518189675008
 30
0.0
  0
VERTEX
  5
1687F
330
1687D
100
AcDbEntity
  8
0
100
AcDbVertex
100
AcDb2dVertex
 10
-22.83919119481836
 20
-178.5514639561353
 30
0.0
  0
VERTEX
  5
16880
330
1687D
100
AcDbEntity
  8
0
100
AcDbVertex
100
AcDb2dVertex
 10
-22.83878227070902
 20
-178.5511088157045
 30
0.0
  0
VERTEX
  5
16881
330
1687D
100
AcDbEntity
  8
0
100
AcDbVertex
100
AcDb2dVertex
 10
-22.83837326804431
 20
-178.5507535344754
 30
0.0
  0
VERTEX
  5
16882
330
1687D
100
AcDbEntity
  8
0
100
AcDbVertex
100
AcDb2dVertex
 10
-22.83796419273812
 20
-178.5503981359144
 30
0.0
  0
VERTEX
  5
16883
330
1687D
100
AcDbEntity
  8
0
100
AcDbVertex
100
AcDb2dVertex
 10
-22.83755505359007
 20
-178.5500426200213
 30
0.0
  0
VERTEX
  5
16884
330
1687D
100
AcDbEntity
  8
0
100
AcDbVertex
100
AcDb2dVertex
 10
-22.83714585653779
 20
-178.5496869867963
 30
0.0
  0
VERTEX
  5
16885
330
1687D
100
AcDbEntity
  8
0
100
AcDbVertex
100
AcDb2dVertex
 10
-22.8367366074477
 20
-178.5493312362393
 30
0.0
  0
VERTEX
  5
16886
330
1687D
100
AcDbEntity
  8
0
100
AcDbVertex
100
AcDb2dVertex
 10
-22.83632731220993
 20
-178.5489753918167
 30
0.0
  0
VERTEX
  5
16887
330
1687D
100
AcDbEntity
  8
0
100
AcDbVertex
100
AcDb2dVertex
 10
-22.83591797673839
 20
-178.5486194417953
 30
0.0
  0
VERTEX
  5
16888
330
1687D
100
AcDbEntity
  8
0
100
AcDbVertex
100
AcDb2dVertex
 10
-22.83550860838983
 20
-178.5482634096416
 30
0.0
  0
VERTEX
  5
16889
330
1687D
100
AcDbEntity
  8
0
100
AcDbVertex
100
AcDb2dVertex
 10
-22.83509921307817
 20
-178.547907271889
 30
0.0
  0
VERTEX
  5
1688A
330
1687D
100
AcDbEntity
  8
0
100
AcDbVertex
100
AcDb2dVertex
 10
-22.83468979811263
 20
-178.5475510637373
 30
0.0
  0
VERTEX
  5
1688B
330
1687D
100
AcDbEntity
  8
0
100
AcDbVertex
100
AcDb2dVertex
 10
-22.83428036796429
 20
-178.5471947734532
 30
0.0
  0
VERTEX
  5
1688C
330
1687D
100
AcDbEntity
  8
0
100
AcDbVertex
100
AcDb2dVertex
 10
-22.83387093145647
 20
-178.5468384245031
 30
0.0
  0
VERTEX
  5
1688D
330
1687D
100
AcDbEntity
  8
0
100
AcDbVertex
100
AcDb2dVertex
 10
-22.83346149154617
 20
-178.5464819934207
 30
0.0
  0
VERTEX
  5
1688E
330
1687D
100
AcDbEntity
  8
0
100
AcDbVertex
100
AcDb2dVertex
 10
-22.83305205852329
 20
-178.5461255036722
 30
0.0
  0
VERTEX
  5
1688F
330
1687D
100
AcDbEntity
  8
0
100
AcDbVertex
100
AcDb2dVertex
 10
-22.8326426368114
 20
-178.5457689669909
 30
0.0
  0
VERTEX
  5
16890
330
1687D
100
AcDbEntity
  8
0
100
AcDbVertex
100
AcDb2dVertex
 10
-22.83223323232441
 20
-178.5454123716437
 30
0.0
  0
VERTEX
  5
16891
330
1687D
100
AcDbEntity
  8
0
100
AcDbVertex
100
AcDb2dVertex
 10
-22.83182385095247
 20
-178.5450557410968
 30
0.0
  0
VERTEX
  5
16892
330
1687D
100
AcDbEntity
  8
0
100
AcDbVertex
100
AcDb2dVertex
 10
-22.83141450151891
 20
-178.5446990636172
 30
0.0
  0
VERTEX
  5
16893
330
1687D
100
AcDbEntity
  8
0
100
AcDbVertex
100
AcDb2dVertex
 10
-22.8310051884473
 20
-178.544342350938
 30
0.0
  0
VERTEX
  5
16894
330
1687D
100
AcDbEntity
  8
0
100
AcDbVertex
100
AcDb2dVertex
 10
-22.83059591911815
 20
-178.5439856030592
 30
0.0
  0
VERTEX
  5
16895
330
1687D
100
AcDbEntity
  8
0
100
AcDbVertex
100
AcDb2dVertex
 10
-22.83018669942158
 20
-178.5436288434472
 30
0.0
  0
VERTEX
  5
16896
330
1687D
100
AcDbEntity
  8
0
100
AcDbVertex
100
AcDb2dVertex
 10
-22.82977753522402
 20
-178.5432720603687
 30
0.0
  0
SEQEND
  5
16897
330
1687D
100
AcDbEntity
  8
0
  0
ELLIPSE
  5
16898
330
1F
100
AcDbEntity
  8
0
100
AcDbEllipse
 10
-22.84889203723071
 20
-178.2778118135157
 30
0.0
 11
0.0000000000000033
 21
-0.2743272540285577
 31
0.0
210
0.0
220
0.0
230
1.0
 40
0.7013595867218384
 41
6.234871795114353
 42
6.331498819245308
  0
ELLIPSE
  5
16899
330
1F
100
AcDbEntity
  8
0
100
AcDbEllipse
 10
-22.81235903180312
 20
-178.2778118135157
 30
0.0
 11
0.0000000000008519
 21
-0.2778128633186977
 31
0.0
210
0.0
220
0.0
230
1.0
 40
0.9999672349882828
 41
5.975042174504571
 42
6.117473326411897
  0
ELLIPSE
  5
1689A
330
1F
100
AcDbEntity
  8
0
100
AcDbEllipse
 10
-22.8483017766424
 20
-178.2778118135158
 30
0.0
 11
0.0000000000001103
 21
-0.2743272540285364
 31
0.0
210
0.0
220
0.0
230
1.0
 40
0.7128076389273154
 41
6.281663799216087
 42
6.331498819244798
  0
POLYLINE
  5
1689B
330
1F
100
AcDbEntity
  8
0
100
AcDb2dPolyline
 66
     1
 10
0.0
 20
0.0
 30
0.0
 70
   128
  0
VERTEX
  5
1689C
330
1689B
100
AcDbEntity
  8
0
100
AcDbVertex
100
AcDb2dVertex
 10
-22.83885810372789
 20
-178.5518189675008
 30
0.0
  0
VERTEX
  5
1689D
330
1689B
100
AcDbEntity
  8
0
100
AcDbVertex
100
AcDb2dVertex
 10
-22.83845365732169
 20
-178.5514653993186
 30
0.0
  0
VERTEX
  5
1689E
330
1689B
100
AcDbEntity
  8
0
100
AcDbVertex
100
AcDb2dVertex
 10
-22.83804912819218
 20
-178.551111690338
 30
0.0
  0
VERTEX
  5
1689F
330
1689B
100
AcDbEntity
  8
0
100
AcDbVertex
100
AcDb2dVertex
 10
-22.83764451922506
 20
-178.5507578640254
 30
0.0
  0
VERTEX
  5
168A0
330
1689B
100
AcDbEntity
  8
0
100
AcDbVertex
100
AcDb2dVertex
 10
-22.83723983917244
 20
-178.5504039086477
 30
0.0
  0
VERTEX
  5
168A1
330
1689B
100
AcDbEntity
  8
0
100
AcDbVertex
100
AcDb2dVertex
 10
-22.83683509096755
 20
-178.5500498242048
 30
0.0
  0
VERTEX
  5
168A2
330
1689B
100
AcDbEntity
  8
0
100
AcDbVertex
100
AcDb2dVertex
 10
-22.83643028629569
 20
-178.5496956341631
 30
0.0
  0
VERTEX
  5
168A3
330
1689B
100
AcDbEntity
  8
0
100
AcDbVertex
100
AcDb2dVertex
 10
-22.83602542513314
 20
-178.5493413385226
 30
0.0
  0
VERTEX
  5
168A4
330
1689B
100
AcDbEntity
  8
0
100
AcDbVertex
100
AcDb2dVertex
 10
-22.83562051772236
 20
-178.5489869372834
 30
0.0
  0
VERTEX
  5
168A5
330
1689B
100
AcDbEntity
  8
0
100
AcDbVertex
100
AcDb2dVertex
 10
-22.83521556841563
 20
-178.5486324421785
 30
0.0
  0
VERTEX
  5
168A6
330
1689B
100
AcDbEntity
  8
0
100
AcDbVertex
100
AcDb2dVertex
 10
-22.834810584546
 20
-178.5482778532081
 30
0.0
  0
VERTEX
  5
168A7
330
1689B
100
AcDbEntity
  8
0
100
AcDbVertex
100
AcDb2dVertex
 10
-22.83440557339897
 20
-178.5479231703721
 30
0.0
  0
VERTEX
  5
168A8
330
1689B
100
AcDbEntity
  8
0
100
AcDbVertex
100
AcDb2dVertex
 10
-22.834000537884
 20
-178.5475684054037
 30
0.0
  0
VERTEX
  5
168A9
330
1689B
100
AcDbEntity
  8
0
100
AcDbVertex
100
AcDb2dVertex
 10
-22.83359548824356
 20
-178.5472135700361
 30
0.0
  0
VERTEX
  5
168AA
330
1689B
100
AcDbEntity
  8
0
100
AcDbVertex
100
AcDb2dVertex
 10
-22.83319042736336
 20
-178.5468586642693
 30
0.0
  0
VERTEX
  5
168AB
330
1689B
100
AcDbEntity
  8
0
100
AcDbVertex
100
AcDb2dVertex
 10
-22.83278536404301
 20
-178.5465036881034
 30
0.0
  0
VERTEX
  5
168AC
330
1689B
100
AcDbEntity
  8
0
100
AcDbVertex
100
AcDb2dVertex
 10
-22.83238030265857
 20
-178.5461486415383
 30
0.0
  0
VERTEX
  5
168AD
330
1689B
100
AcDbEntity
  8
0
100
AcDbVertex
100
AcDb2dVertex
 10
-22.83197524900522
 20
-178.5457935597735
 30
0.0
  0
VERTEX
  5
168AE
330
1689B
100
AcDbEntity
  8
0
100
AcDbVertex
100
AcDb2dVertex
 10
-22.83157021188256
 20
-178.5454384076096
 30
0.0
  0
VERTEX
  5
168AF
330
1689B
100
AcDbEntity
  8
0
100
AcDbVertex
100
AcDb2dVertex
 10
-22.83116519564291
 20
-178.5450832202461
 30
0.0
  0
VERTEX
  5
168B0
330
1689B
100
AcDbEntity
  8
0
100
AcDbVertex
100
AcDb2dVertex
 10
-22.83076020615265
 20
-178.544727997683
 30
0.0
  0
VERTEX
  5
168B1
330
1689B
100
AcDbEntity
  8
0
100
AcDbVertex
100
AcDb2dVertex
 10
-22.83035525218771
 20
-178.5443727399203
 30
0.0
  0
VERTEX
  5
168B2
330
1689B
100
AcDbEntity
  8
0
100
AcDbVertex
100
AcDb2dVertex
 10
-22.82995033661001
 20
-178.544017446958
 30
0.0
  0
VERTEX
  5
168B3
330
1689B
100
AcDbEntity
  8
0
100
AcDbVertex
100
AcDb2dVertex
 10
-22.82954546821915
 20
-178.5436621305293
 30
0.0
  0
VERTEX
  5
168B4
330
1689B
100
AcDbEntity
  8
0
100
AcDbVertex
100
AcDb2dVertex
 10
-22.82914065283408
 20
-178.5433068023674
 30
0.0
  0
SEQEND
  5
168B5
330
1689B
100
AcDbEntity
  8
0
  0
ELLIPSE
  5
168B6
330
1F
100
AcDbEntity
  8
0
100
AcDbEllipse
 10
-22.77960681864158
 20
-178.2930411989988
 30
0.0
 11
-0.1173582839874585
 21
-0.2507000317741024
 31
0.0
210
0.0
220
0.0
230
0.9999999999999998
 40
0.007331496548962
 41
6.188594481291718
 42
6.379698683843777
  0
ELLIPSE
  5
168B7
330
1F
100
AcDbEntity
  8
0
100
AcDbEllipse
 10
-22.8118763741498
 20
-178.2930411989988
 30
0.0
 11
-0.276768071493918
 21
-0.0047861627156828
 31
0.0
210
0.0
220
0.0
230
0.9999999999999996
 40
0.9056529397581901
 41
1.453681236569837
 42
1.649726935948153
  0
ELLIPSE
  5
168B8
330
1F
100
AcDbEntity
  8
0
100
AcDbEllipse
 10
-22.84467265455507
 20
-178.2930411989988
 30
0.0
 11
0.1173582839875596
 21
-0.2507000317740839
 31
0.0
210
0.0
220
0.0
230
1.0
 40
0.0073314965488097
 41
6.181730433687857
 42
6.282233860019232
  0
LINE
  5
168B9
330
1F
100
AcDbEntity
  8
0
100
AcDbLine
 10
-22.73013973659833
 20
-178.2528793769456
 30
0.0
 11
-22.73013973659833
 21
-178.2529659911185
 31
0.0
  0
LINE
  5
168BA
330
1F
100
AcDbEntity
  8
0
100
AcDbLine
 10
-22.89413973659833
 20
-178.2528793769456
 30
0.0
 11
-22.89413973659833
 21
-178.2529659911185
 31
0.0
  0
ARC
  5
168BB
330
1F
100
AcDbEntity
  8
0
100
AcDbCircle
 10
-22.81213973659832
 20
-178.2778118135157
 30
0.0
 40
0.2791305555555822
100
AcDbArc
 50
287.6910900862623
 51
303.5563575461621
  0
ARC
  5
168BC
330
1F
100
AcDbEntity
  8
0
100
AcDbCircle
 10
-22.81213973659832
 20
-178.2778118135157
 30
0.0
 40
0.279130555555589
100
AcDbArc
 50
236.4436424538556
 51
252.3089099137565
  0
LINE
  5
168BD
330
1F
100
AcDbEntity
  8
0
100
AcDbLine
 10
-22.6511397365983
 20
-178.4419423690713
 30
0.0
 11
-22.65113973659828
 21
-178.4979230362602
 31
0.0
  0
LINE
  5
168BE
330
1F
100
AcDbEntity
  8
0
100
AcDbLine
 10
-22.97313973659829
 20
-178.4419423690713
 30
0.0
 11
-22.97313973659829
 21
-178.4979230362603
 31
0.0
  0
ARC
  5
168BF
330
1F
100
AcDbEntity
  8
0
100
AcDbCircle
 10
-22.95813973659829
 20
-178.4979230362603
 30
0.0
 40
0.0150000000000014
100
AcDbArc
 50
180.0
 51
236.4436424538615
  0
ARC
  5
168C0
330
1F
100
AcDbEntity
  8
0
100
AcDbCircle
 10
-22.66613973659828
 20
-178.4979230362602
 30
0.0
 40
0.015000000000002
100
AcDbArc
 50
303.556357546156
 51
0.0
  0
ELLIPSE
  5
168C1
330
1F
100
AcDbEntity
  8
0
100
AcDbEllipse
 10
-21.63544378573662
 20
-161.8421201687196
 30
0.0
 11
-0.0000000000000011
 21
0.2778128633186609
 31
0.0
210
0.0
220
0.0
230
1.0
 40
0.0064775470407574
 41
0.1657119807639411
 42
0.3081431326719608
  0
POLYLINE
  5
168C2
330
1F
100
AcDbEntity
  8
0
100
AcDb2dPolyline
 66
     1
 10
0.0
 20
0.0
 30
0.0
 70
   128
  0
VERTEX
  5
168C3
330
168C2
100
AcDbEntity
  8
0
100
AcDbVertex
100
AcDb2dVertex
 10
-21.63574062898248
 20
-161.5681130147345
 30
0.0
  0
VERTEX
  5
168C4
330
168C2
100
AcDbEntity
  8
0
100
AcDbVertex
100
AcDb2dVertex
 10
-21.63614857431154
 20
-161.5684693988842
 30
0.0
  0
VERTEX
  5
168C5
330
168C2
100
AcDbEntity
  8
0
100
AcDbVertex
100
AcDb2dVertex
 10
-21.6365566051985
 20
-161.5688259238323
 30
0.0
  0
VERTEX
  5
168C6
330
168C2
100
AcDbEntity
  8
0
100
AcDbVertex
100
AcDb2dVertex
 10
-21.6369647158149
 20
-161.5691825661123
 30
0.0
  0
VERTEX
  5
168C7
330
168C2
100
AcDbEntity
  8
0
100
AcDbVertex
100
AcDb2dVertex
 10
-21.63737290031327
 20
-161.5695393491907
 30
0.0
  0
VERTEX
  5
168C8
330
168C2
100
AcDbEntity
  8
0
100
AcDbVertex
100
AcDb2dVertex
 10
-21.6377811498939
 20
-161.5698962496011
 30
0.0
  0
VERTEX
  5
168C9
330
168C2
100
AcDbEntity
  8
0
100
AcDbVertex
100
AcDb2dVertex
 10
-21.63818945874731
 20
-161.5702532556103
 30
0.0
  0
VERTEX
  5
168CA
330
168C2
100
AcDbEntity
  8
0
100
AcDbVertex
100
AcDb2dVertex
 10
-21.63859782395924
 20
-161.5706103789515
 30
0.0
  0
VERTEX
  5
168CB
330
168C2
100
AcDbEntity
  8
0
100
AcDbVertex
100
AcDb2dVertex
 10
-21.63900623673001
 20
-161.5709676078914
 30
0.0
  0
VERTEX
  5
168CC
330
168C2
100
AcDbEntity
  8
0
100
AcDbVertex
100
AcDb2dVertex
 10
-21.6394146897835
 20
-161.5713249424301
 30
0.0
  0
VERTEX
  5
168CD
330
168C2
100
AcDbEntity
  8
0
100
AcDbVertex
100
AcDb2dVertex
 10
-21.63982317723423
 20
-161.5716823591012
 30
0.0
  0
VERTEX
  5
168CE
330
168C2
100
AcDbEntity
  8
0
100
AcDbVertex
100
AcDb2dVertex
 10
-21.6402316947394
 20
-161.5720398696379
 30
0.0
  0
VERTEX
  5
168CF
330
168C2
100
AcDbEntity
  8
0
100
AcDbVertex
100
AcDb2dVertex
 10
-21.64064023205162
 20
-161.5723974623069
 30
0.0
  0
VERTEX
  5
168D0
330
168C2
100
AcDbEntity
  8
0
100
AcDbVertex
100
AcDb2dVertex
 10
-21.64104878623769
 20
-161.5727551253752
 30
0.0
  0
VERTEX
  5
168D1
330
168C2
100
AcDbEntity
  8
0
100
AcDbVertex
100
AcDb2dVertex
 10
-21.64145735002147
 20
-161.5731128705758
 30
0.0
  0
VERTEX
  5
168D2
330
168C2
100
AcDbEntity
  8
0
100
AcDbVertex
100
AcDb2dVertex
 10
-21.64186591606991
 20
-161.5734706744424
 30
0.0
  0
VERTEX
  5
168D3
330
168C2
100
AcDbEntity
  8
0
100
AcDbVertex
100
AcDb2dVertex
 10
-21.64227447855452
 20
-161.5738285487082
 30
0.0
  0
VERTEX
  5
168D4
330
168C2
100
AcDbEntity
  8
0
100
AcDbVertex
100
AcDb2dVertex
 10
-21.6426830301612
 20
-161.5741864699068
 30
0.0
  0
VERTEX
  5
168D5
330
168C2
100
AcDbEntity
  8
0
100
AcDbVertex
100
AcDb2dVertex
 10
-21.6430915664901
 20
-161.5745444497714
 30
0.0
  0
VERTEX
  5
168D6
330
168C2
100
AcDbEntity
  8
0
100
AcDbVertex
100
AcDb2dVertex
 10
-21.6435000787985
 20
-161.5749024765688
 30
0.0
  0
VERTEX
  5
168D7
330
168C2
100
AcDbEntity
  8
0
100
AcDbVertex
100
AcDb2dVertex
 10
-21.64390856270555
 20
-161.5752605268325
 30
0.0
  0
VERTEX
  5
168D8
330
168C2
100
AcDbEntity
  8
0
100
AcDbVertex
100
AcDb2dVertex
 10
-21.64431701234478
 20
-161.5756186240291
 30
0.0
  0
VERTEX
  5
168D9
330
168C2
100
AcDbEntity
  8
0
100
AcDbVertex
100
AcDb2dVertex
 10
-21.64472541897348
 20
-161.5759767446921
 30
0.0
  0
VERTEX
  5
168DA
330
168C2
100
AcDbEntity
  8
0
100
AcDbVertex
100
AcDb2dVertex
 10
-21.64513377670616
 20
-161.5763348888214
 30
0.0
  0
VERTEX
  5
168DB
330
168C2
100
AcDbEntity
  8
0
100
AcDbVertex
100
AcDb2dVertex
 10
-21.64554207973334
 20
-161.5766930564172
 30
0.0
  0
SEQEND
  5
168DC
330
168C2
100
AcDbEntity
  8
0
  0
ELLIPSE
  5
168DD
330
1F
100
AcDbEntity
  8
0
100
AcDbEllipse
 10
-21.62631199814873
 20
-161.8421201687196
 30
0.0
 11
0.0000000000000018
 21
0.2743272540285214
 31
0.0
210
0.0
220
0.0
230
1.0
 40
0.7116722638580733
 41
6.234871795114123
 42
6.331498819245065
  0
ELLIPSE
  5
168DE
330
1F
100
AcDbEntity
  8
0
100
AcDbEllipse
 10
-21.66270891556712
 20
-161.8421201687196
 30
0.0
 11
0.0000000000001729
 21
0.2778128633186628
 31
0.0
210
0.0
220
0.0
230
1.0
 40
0.9999790204720946
 41
5.975042174508087
 42
6.117473326415423
  0
ELLIPSE
  5
168DF
330
1F
100
AcDbEntity
  8
0
100
AcDbEllipse
 10
-21.66235795921839
 20
-161.8421201687196
 30
0.0
 11
0.0000000000003803
 21
0.2778128633186647
 31
0.0
210
0.0
220
0.0
230
1.0
 40
0.9999790204720946
 41
5.976172890504747
 42
6.11747332641613
  0
LINE
  5
168E0
330
1F
100
AcDbEntity
  8
0
100
AcDbLine
 10
-21.61653241162788
 20
-161.5681130147345
 30
0.0
 11
-21.61655886379697
 21
-161.5681674919719
 31
0.0
  0
ELLIPSE
  5
168E1
330
1F
100
AcDbEntity
  8
0
100
AcDbEllipse
 10
-21.62583967660143
 20
-161.8421201687196
 30
0.0
 11
0.0000000000000066
 21
0.2743272540285672
 31
0.0
210
0.0
220
0.0
230
1.0
 40
0.7025116289821264
 41
6.234871795114126
 42
6.284402790508453
  0
POLYLINE
  5
168E2
330
1F
100
AcDbEntity
  8
0
100
AcDb2dPolyline
 66
     1
 10
0.0
 20
0.0
 30
0.0
 70
   128
  0
VERTEX
  5
168E3
330
168E2
100
AcDbEntity
  8
0
100
AcDbVertex
100
AcDb2dVertex
 10
-21.68932624580305
 20
-161.5681130147345
 30
0.0
  0
VERTEX
  5
168E4
330
168E2
100
AcDbEntity
  8
0
100
AcDbVertex
100
AcDb2dVertex
 10
-21.68892102979373
 20
-161.5684670170451
 30
0.0
  0
VERTEX
  5
168E5
330
168E2
100
AcDbEntity
  8
0
100
AcDbVertex
100
AcDb2dVertex
 10
-21.68851573117876
 20
-161.5688211484208
 30
0.0
  0
VERTEX
  5
168E6
330
168E2
100
AcDbEntity
  8
0
100
AcDbVertex
100
AcDb2dVertex
 10
-21.68811034992009
 20
-161.5691754088617
 30
0.0
  0
VERTEX
  5
168E7
330
168E2
100
AcDbEntity
  8
0
100
AcDbVertex
100
AcDb2dVertex
 10
-21.68770490064595
 20
-161.5695297983677
 30
0.0
  0
VERTEX
  5
168E8
330
168E2
100
AcDbEntity
  8
0
100
AcDbVertex
100
AcDb2dVertex
 10
-21.68729938333729
 20
-161.5698843052058
 30
0.0
  0
VERTEX
  5
168E9
330
168E2
100
AcDbEntity
  8
0
100
AcDbVertex
100
AcDb2dVertex
 10
-21.68689380679388
 20
-161.5702389293758
 30
0.0
  0
VERTEX
  5
168EA
330
168E2
100
AcDbEntity
  8
0
100
AcDbVertex
100
AcDb2dVertex
 10
-21.68648817535855
 20
-161.5705936591446
 30
0.0
  0
VERTEX
  5
168EB
330
168E2
100
AcDbEntity
  8
0
100
AcDbVertex
100
AcDb2dVertex
 10
-21.68608249784998
 20
-161.5709484945122
 30
0.0
  0
VERTEX
  5
168EC
330
168E2
100
AcDbEntity
  8
0
100
AcDbVertex
100
AcDb2dVertex
 10
-21.68567677859208
 20
-161.5713034237453
 30
0.0
  0
VERTEX
  5
168ED
330
168E2
100
AcDbEntity
  8
0
100
AcDbVertex
100
AcDb2dVertex
 10
-21.68527102495595
 20
-161.5716584468441
 30
0.0
  0
VERTEX
  5
168EE
330
168E2
100
AcDbEntity
  8
0
100
AcDbVertex
100
AcDb2dVertex
 10
-21.68486524419863
 20
-161.5720135520752
 30
0.0
  0
VERTEX
  5
168EF
330
168E2
100
AcDbEntity
  8
0
100
AcDbVertex
100
AcDb2dVertex
 10
-21.68445943925338
 20
-161.5723687511719
 30
0.0
  0
VERTEX
  5
168F0
330
168E2
100
AcDbEntity
  8
0
100
AcDbVertex
100
AcDb2dVertex
 10
-21.68405362036754
 20
-161.5727240206678
 30
0.0
  0
VERTEX
  5
168F1
330
168E2
100
AcDbEntity
  8
0
100
AcDbVertex
100
AcDb2dVertex
 10
-21.68364779043637
 20
-161.5730793605629
 30
0.0
  0
VERTEX
  5
168F2
330
168E2
100
AcDbEntity
  8
0
100
AcDbVertex
100
AcDb2dVertex
 10
-21.68324195825952
 20
-161.5734347708572
 30
0.0
  0
VERTEX
  5
168F3
330
168E2
100
AcDbEntity
  8
0
100
AcDbVertex
100
AcDb2dVertex
 10
-21.68283612819891
 20
-161.5737902398174
 30
0.0
  0
VERTEX
  5
168F4
330
168E2
100
AcDbEntity
  8
0
100
AcDbVertex
100
AcDb2dVertex
 10
-21.68243030754958
 20
-161.5741457674437
 30
0.0
  0
VERTEX
  5
168F5
330
168E2
100
AcDbEntity
  8
0
100
AcDbVertex
100
AcDb2dVertex
 10
-21.68202450219705
 20
-161.5745013420027
 30
0.0
  0
VERTEX
  5
168F6
330
168E2
100
AcDbEntity
  8
0
100
AcDbVertex
100
AcDb2dVertex
 10
-21.68161871939839
 20
-161.5748569634945
 30
0.0
  0
VERTEX
  5
168F7
330
168E2
100
AcDbEntity
  8
0
100
AcDbVertex
100
AcDb2dVertex
 10
-21.68121296359147
 20
-161.575212620186
 30
0.0
  0
VERTEX
  5
168F8
330
168E2
100
AcDbEntity
  8
0
100
AcDbVertex
100
AcDb2dVertex
 10
-21.68080724203337
 20
-161.575568312077
 30
0.0
  0
VERTEX
  5
168F9
330
168E2
100
AcDbEntity
  8
0
100
AcDbVertex
100
AcDb2dVertex
 10
-21.68040156205719
 20
-161.5759240391676
 30
0.0
  0
VERTEX
  5
168FA
330
168E2
100
AcDbEntity
  8
0
100
AcDbVertex
100
AcDb2dVertex
 10
-21.67999592802479
 20
-161.5762797897246
 30
0.0
  0
VERTEX
  5
168FB
330
168E2
100
AcDbEntity
  8
0
100
AcDbVertex
100
AcDb2dVertex
 10
-21.67959034726926
 20
-161.5766355520148
 30
0.0
  0
SEQEND
  5
168FC
330
168E2
100
AcDbEntity
  8
0
  0
ELLIPSE
  5
168FD
330
1F
100
AcDbEntity
  8
0
100
AcDbEllipse
 10
-21.69875487663681
 20
-161.8421201687197
 30
0.0
 11
-0.0000000000000068
 21
0.2743272540285765
 31
0.0
210
0.0
220
0.0
230
1.0
 40
0.7116722638580733
 41
6.23487179511409
 42
6.284402790508414
  0
ELLIPSE
  5
168FE
330
1F
100
AcDbEntity
  8
0
100
AcDbEllipse
 10
-21.66270891556712
 20
-161.8421201687196
 30
0.0
 11
0.0000000000003354
 21
0.2778128633186619
 31
0.0
210
0.0
220
0.0
230
1.0
 40
0.9999790204720946
 41
0.1657119807660123
 42
0.3081431326733348
  0
ELLIPSE
  5
168FF
330
1F
100
AcDbEntity
  8
0
100
AcDbEllipse
 10
-21.69922719818411
 20
-161.8421201687196
 30
0.0
 11
-0.0000000000000019
 21
0.2743272540285227
 31
0.0
210
0.0
220
0.0
230
1.0
 40
0.7025116289821261
 41
6.234871795114074
 42
6.331498819245047
  0
POLYLINE
  5
16900
330
1F
100
AcDbEntity
  8
0
100
AcDb2dPolyline
 66
     1
 10
0.0
 20
0.0
 30
0.0
 70
   128
  0
VERTEX
  5
16901
330
16900
100
AcDbEntity
  8
0
100
AcDbVertex
100
AcDb2dVertex
 10
-21.68991993253869
 20
-161.5681130147345
 30
0.0
  0
VERTEX
  5
16902
330
16900
100
AcDbEntity
  8
0
100
AcDbVertex
100
AcDb2dVertex
 10
-21.68951118901774
 20
-161.5684681786317
 30
0.0
  0
VERTEX
  5
16903
330
16900
100
AcDbEntity
  8
0
100
AcDbVertex
100
AcDb2dVertex
 10
-21.6891023609459
 20
-161.5688234715939
 30
0.0
  0
VERTEX
  5
16904
330
16900
100
AcDbEntity
  8
0
100
AcDbVertex
100
AcDb2dVertex
 10
-21.68869345418967
 20
-161.5691788936214
 30
0.0
  0
VERTEX
  5
16905
330
16900
100
AcDbEntity
  8
0
100
AcDbVertex
100
AcDb2dVertex
 10
-21.68828447756773
 20
-161.5695344447141
 30
0.0
  0
VERTEX
  5
16906
330
16900
100
AcDbEntity
  8
0
100
AcDbVertex
100
AcDb2dVertex
 10
-21.68787543405136
 20
-161.5698901131387
 30
0.0
  0
VERTEX
  5
16907
330
16900
100
AcDbEntity
  8
0
100
AcDbVertex
100
AcDb2dVertex
 10
-21.68746633245923
 20
-161.5702458988953
 30
0.0
  0
VERTEX
  5
16908
330
16900
100
AcDbEntity
  8
0
100
AcDbVertex
100
AcDb2dVertex
 10
-21.68705717869585
 20
-161.5706018019839
 30
0.0
  0
VERTEX
  5
16909
330
16900
100
AcDbEntity
  8
0
100
AcDbVertex
100
AcDb2dVertex
 10
-21.68664797862766
 20
-161.570957798938
 30
0.0
  0
VERTEX
  5
1690A
330
16900
100
AcDbEntity
  8
0
100
AcDbVertex
100
AcDb2dVertex
 10
-21.68623873815919
 20
-161.5713138897578
 30
0.0
  0
VERTEX
  5
1690B
330
16900
100
AcDbEntity
  8
0
100
AcDbVertex
100
AcDb2dVertex
 10
-21.68582946464248
 20
-161.5716700861763
 30
0.0
  0
VERTEX
  5
1690C
330
16900
100
AcDbEntity
  8
0
100
AcDbVertex
100
AcDb2dVertex
 10
-21.68542016396305
 20
-161.5720263647272
 30
0.0
  0
VERTEX
  5
1690D
330
16900
100
AcDbEntity
  8
0
100
AcDbVertex
100
AcDb2dVertex
 10
-21.68501084347296
 20
-161.5723827254105
 30
0.0
  0
VERTEX
  5
1690E
330
16900
100
AcDbEntity
  8
0
100
AcDbVertex
100
AcDb2dVertex
 10
-21.6846015076101
 20
-161.5727391682262
 30
0.0
  0
VERTEX
  5
1690F
330
16900
100
AcDbEntity
  8
0
100
AcDbVertex
100
AcDb2dVertex
 10
-21.68419216519317
 20
-161.5730956697079
 30
0.0
  0
VERTEX
  5
16910
330
16900
100
AcDbEntity
  8
0
100
AcDbVertex
100
AcDb2dVertex
 10
-21.68378282062201
 20
-161.5734522533219
 30
0.0
  0
VERTEX
  5
16911
330
16900
100
AcDbEntity
  8
0
100
AcDbVertex
100
AcDb2dVertex
 10
-21.68337348128674
 20
-161.5738088956019
 30
0.0
  0
VERTEX
  5
16912
330
16900
100
AcDbEntity
  8
0
100
AcDbVertex
100
AcDb2dVertex
 10
-21.68296415307283
 20
-161.5741655848147
 30
0.0
  0
VERTEX
  5
16913
330
16900
100
AcDbEntity
  8
0
100
AcDbVertex
100
AcDb2dVertex
 10
-21.68255484184677
 20
-161.5745223326935
 30
0.0
  0
VERTEX
  5
16914
330
16900
100
AcDbEntity
  8
0
100
AcDbVertex
100
AcDb2dVertex
 10
-21.68214555497961
 20
-161.574879115772
 30
0.0
  0
VERTEX
  5
16915
330
16900
100
AcDbEntity
  8
0
100
AcDbVertex
100
AcDb2dVertex
 10
-21.68173629835688
 20
-161.5752359457832
 30
0.0
  0
VERTEX
  5
16916
330
16900
100
AcDbEntity
  8
0
100
AcDbVertex
100
AcDb2dVertex
 10
-21.68132707934964
 20
-161.575592810994
 30
0.0
  0
VERTEX
  5
16917
330
16900
100
AcDbEntity
  8
0
100
AcDbVertex
100
AcDb2dVertex
 10
-21.68091790235777
 20
-161.5759496996712
 30
0.0
  0
VERTEX
  5
16918
330
16900
100
AcDbEntity
  8
0
100
AcDbVertex
100
AcDb2dVertex
 10
-21.68050877621897
 20
-161.5763066118147
 30
0.0
  0
VERTEX
  5
16919
330
16900
100
AcDbEntity
  8
0
100
AcDbVertex
100
AcDb2dVertex
 10
-21.6800997053521
 20
-161.5766635474247
 30
0.0
  0
SEQEND
  5
1691A
330
16900
100
AcDbEntity
  8
0
  0
ELLIPSE
  5
1691B
330
1F
100
AcDbEntity
  8
0
100
AcDbEllipse
 10
-21.6896230890489
 20
-161.8421201687196
 30
0.0
 11
-0.0000000000000011
 21
0.2778128633186626
 31
0.0
210
0.0
220
0.0
230
1.0
 40
0.0064775470407574
 41
0.1657119807634517
 42
0.3081431326684685
  0
ELLIPSE
  5
1691C
330
1F
100
AcDbEntity
  8
0
100
AcDbEllipse
 10
-21.66232269698141
 20
-161.8268907832365
 30
0.0
 11
0.2767829536767761
 21
-0.0038300529970333
 31
0.0
210
0.0
220
0.0
230
1.0
 40
0.9056636136658426
 41
1.488051414708366
 42
1.684097114086701
  0
ELLIPSE
  5
1691D
330
1F
100
AcDbEntity
  8
0
100
AcDbEllipse
 10
-21.63000013600729
 20
-161.8268907832365
 30
0.0
 11
-0.1173571494506679
 21
0.2507005628729466
 31
0.0
210
0.0
220
0.0
230
1.0
 40
0.0058666017391596
 41
6.186371951811945
 42
6.37846190884098
  0
ELLIPSE
  5
1691E
330
1F
100
AcDbEntity
  8
0
100
AcDbEllipse
 10
-21.66274417780412
 20
-161.8268907832365
 30
0.0
 11
-0.2767829536767603
 21
-0.0038300529970343
 31
0.0
210
0.0
220
0.0
230
1.0
 40
0.90566361366586
 41
4.637434692076143
 42
4.760517070085803
  0
ELLIPSE
  5
1691F
330
1F
100
AcDbEntity
  8
0
100
AcDbEllipse
 10
-21.69506673877823
 20
-161.8268907832365
 30
0.0
 11
0.1173571494506558
 21
0.2507005628729417
 31
0.0
210
0.0
220
0.0
230
1.0
 40
0.0058666017391557
 41
0.0007613325896845
 42
0.1007690977111926
  0
LINE
  5
16920
330
1F
100
AcDbEntity
  8
0
100
AcDbLine
 10
-21.74453343739276
 20
-161.8670526052921
 30
0.0
 11
-21.74453343739276
 21
-161.8669659911168
 31
0.0
  0
LINE
  5
16921
330
1F
100
AcDbEntity
  8
0
100
AcDbLine
 10
-21.58053343739276
 20
-161.8670526052921
 30
0.0
 11
-21.58053343739276
 21
-161.8669659911168
 31
0.0
  0
ARC
  5
16922
330
1F
100
AcDbEntity
  8
0
100
AcDbCircle
 10
-21.66253343739278
 20
-161.8421201687196
 30
0.0
 40
0.2791305555555553
100
AcDbArc
 50
56.44364245383606
 51
72.30909732219622
  0
ARC
  5
16923
330
1F
100
AcDbEntity
  8
0
100
AcDbCircle
 10
-21.66253343739278
 20
-161.8421201687196
 30
0.0
 40
0.2791305555555552
100
AcDbArc
 50
107.6909026778037
 51
123.556357546162
  0
LINE
  5
16924
330
1F
100
AcDbEntity
  8
0
100
AcDbLine
 10
-21.82353343739276
 20
-161.6779896131641
 30
0.0
 11
-21.82353343739276
 21
-161.6220089459751
 31
0.0
  0
LINE
  5
16925
330
1F
100
AcDbEntity
  8
0
100
AcDbLine
 10
-21.50153343739276
 20
-161.6779896131641
 30
0.0
 11
-21.50153343739276
 21
-161.6220089459751
 31
0.0
  0
ARC
  5
16926
330
1F
100
AcDbEntity
  8
0
100
AcDbCircle
 10
-21.51653343739277
 20
-161.6220089459751
 30
0.0
 40
0.015
100
AcDbArc
 50
0.0
 51
56.44364245383215
  0
ARC
  5
16927
330
1F
100
AcDbEntity
  8
0
100
AcDbCircle
 10
-21.80853343739276
 20
-161.6220089459751
 30
0.0
 40
0.015
100
AcDbArc
 50
123.5563575461378
 51
180.0
  0
LINE
  5
16928
330
1F
100
AcDbEntity
  8
0
100
AcDbLine
 10
-22.84425399966873
 20
-162.412489613164
 30
0.0
 11
-22.76874451512931
 21
-162.412489613164
 31
0.0
  0
LINE
  5
16929
330
1F
100
AcDbEntity
  8
0
100
AcDbLine
 10
-22.76874451512931
 20
-162.427989613164
 30
0.0
 11
-22.84425399966873
 21
-162.427989613164
 31
0.0
  0
LINE
  5
1692A
330
1F
100
AcDbEntity
  8
0
100
AcDbLine
 10
-22.78504951660907
 20
-161.5681130191321
 30
0.0
 11
-22.78504951660907
 21
-161.577392740994
 31
0.0
  0
POLYLINE
  5
1692B
330
1F
100
AcDbEntity
  8
0
100
AcDb2dPolyline
 66
     1
 10
0.0
 20
0.0
 30
0.0
 70
   128
  0
VERTEX
  5
1692C
330
1692B
100
AcDbEntity
  8
0
100
AcDbVertex
100
AcDb2dVertex
 10
-22.78504951648711
 20
-161.5681130147345
 30
0.0
  0
VERTEX
  5
1692D
330
1692B
100
AcDbEntity
  8
0
100
AcDbVertex
100
AcDb2dVertex
 10
-22.7854578669698
 20
-161.5684687887579
 30
0.0
  0
VERTEX
  5
1692E
330
1692B
100
AcDbEntity
  8
0
100
AcDbVertex
100
AcDb2dVertex
 10
-22.78586630251819
 20
-161.5688246918465
 30
0.0
  0
VERTEX
  5
1692F
330
1692B
100
AcDbEntity
  8
0
100
AcDbVertex
100
AcDb2dVertex
 10
-22.78627481433237
 20
-161.5691807240003
 30
0.0
  0
VERTEX
  5
16930
330
1692B
100
AcDbEntity
  8
0
100
AcDbVertex
100
AcDb2dVertex
 10
-22.78668340241232
 20
-161.5695368852192
 30
0.0
  0
VERTEX
  5
16931
330
1692B
100
AcDbEntity
  8
0
100
AcDbVertex
100
AcDb2dVertex
 10
-22.78709205209156
 20
-161.5698931637701
 30
0.0
  0
VERTEX
  5
16932
330
1692B
100
AcDbEntity
  8
0
100
AcDbVertex
100
AcDb2dVertex
 10
-22.78750076337008
 20
-161.570249559653
 30
0.0
  0
VERTEX
  5
16933
330
1692B
100
AcDbEntity
  8
0
100
AcDbVertex
100
AcDb2dVertex
 10
-22.78790952891466
 20
-161.5706060611346
 30
0.0
  0
VERTEX
  5
16934
330
1692B
100
AcDbEntity
  8
0
100
AcDbVertex
100
AcDb2dVertex
 10
-22.78831834139204
 20
-161.5709626682151
 30
0.0
  0
VERTEX
  5
16935
330
1692B
100
AcDbEntity
  8
0
100
AcDbVertex
100
AcDb2dVertex
 10
-22.78872719346893
 20
-161.5713193808943
 30
0.0
  0
VERTEX
  5
16936
330
1692B
100
AcDbEntity
  8
0
100
AcDbVertex
100
AcDb2dVertex
 10
-22.78913607927878
 20
-161.5716761757059
 30
0.0
  0
VERTEX
  5
16937
330
1692B
100
AcDbEntity
  8
0
100
AcDbVertex
100
AcDb2dVertex
 10
-22.78954499295497
 20
-161.5720330643831
 30
0.0
  0
VERTEX
  5
16938
330
1692B
100
AcDbEntity
  8
0
100
AcDbVertex
100
AcDb2dVertex
 10
-22.78995392863091
 20
-161.5723900351927
 30
0.0
  0
VERTEX
  5
16939
330
1692B
100
AcDbEntity
  8
0
100
AcDbVertex
100
AcDb2dVertex
 10
-22.79036287897335
 20
-161.5727470881347
 30
0.0
  0
VERTEX
  5
1693A
330
1692B
100
AcDbEntity
  8
0
100
AcDbVertex
100
AcDb2dVertex
 10
-22.79077183664904
 20
-161.5731042114758
 30
0.0
  0
VERTEX
  5
1693B
330
1692B
100
AcDbEntity
  8
0
100
AcDbVertex
100
AcDb2dVertex
 10
-22.79118079725803
 20
-161.5734614052161
 30
0.0
  0
VERTEX
  5
1693C
330
1692B
100
AcDbEntity
  8
0
100
AcDbVertex
100
AcDb2dVertex
 10
-22.79158975346706
 20
-161.5738186458893
 30
0.0
  0
VERTEX
  5
1693D
330
1692B
100
AcDbEntity
  8
0
100
AcDbVertex
100
AcDb2dVertex
 10
-22.79199869940955
 20
-161.5741759569616
 30
0.0
  0
VERTEX
  5
1693E
330
1692B
100
AcDbEntity
  8
0
100
AcDbVertex
100
AcDb2dVertex
 10
-22.79240762921889
 20
-161.5745333149667
 30
0.0
  0
VERTEX
  5
1693F
330
1692B
100
AcDbEntity
  8
0
100
AcDbVertex
100
AcDb2dVertex
 10
-22.79281653409519
 20
-161.5748907081714
 30
0.0
  0
VERTEX
  5
16940
330
1692B
100
AcDbEntity
  8
0
100
AcDbVertex
100
AcDb2dVertex
 10
-22.79322540963849
 20
-161.5752481483089
 30
0.0
  0
VERTEX
  5
16941
330
1692B
100
AcDbEntity
  8
0
100
AcDbVertex
100
AcDb2dVertex
 10
-22.79363424851554
 20
-161.5756056236459
 30
0.0
  0
VERTEX
  5
16942
330
1692B
100
AcDbEntity
  8
0
100
AcDbVertex
100
AcDb2dVertex
 10
-22.79404304632641
 20
-161.5759631224494
 30
0.0
  0
VERTEX
  5
16943
330
1692B
100
AcDbEntity
  8
0
100
AcDbVertex
100
AcDb2dVertex
 10
-22.79445179427119
 20
-161.5763206564525
 30
0.0
  0
VERTEX
  5
16944
330
1692B
100
AcDbEntity
  8
0
100
AcDbVertex
100
AcDb2dVertex
 10
-22.79486048648327
 20
-161.5766782021888
 30
0.0
  0
SEQEND
  5
16945
330
1692B
100
AcDbEntity
  8
0
  0
ELLIPSE
  5
16946
330
1F
100
AcDbEntity
  8
0
100
AcDbEllipse
 10
-22.77568137170826
 20
-161.8421201687196
 30
0.0
 11
0.0000000000000017
 21
0.2743272540285215
 31
0.0
210
0.0
220
0.0
230
1.0
 40
0.7071067811866839
 41
6.234871795114123
 42
6.331498819245068
  0
ARC
  5
16947
330
1F
100
AcDbEntity
  8
0
100
AcDbCircle
 10
-22.81213973660523
 20
-161.8421201687196
 30
0.0
 40
0.2778128633186629
100
AcDbArc
 50
72.34469901194696
 51
80.50540288742354
  0
ARC
  5
16948
330
1F
100
AcDbEntity
  8
0
100
AcDbCircle
 10
-22.81213973660523
 20
-161.8421201687196
 30
0.0
 40
0.2778128633186619
100
AcDbArc
 50
99.49459711257647
 51
107.655300988053
  0
ELLIPSE
  5
16949
330
1F
100
AcDbEntity
  8
0
100
AcDbEllipse
 10
-22.84859810150221
 20
-161.8421201687196
 30
0.0
 11
-0.000000000000002
 21
0.2743272540285228
 31
0.0
210
0.0
220
0.0
230
1.0
 40
0.7071067811864086
 41
6.234871795114113
 42
6.331498819245066
  0
POLYLINE
  5
1694A
330
1F
100
AcDbEntity
  8
0
100
AcDb2dPolyline
 66
     1
 10
0.0
 20
0.0
 30
0.0
 70
   128
  0
VERTEX
  5
1694B
330
1694A
100
AcDbEntity
  8
0
100
AcDbVertex
100
AcDb2dVertex
 10
-22.83922995672337
 20
-161.5681130147345
 30
0.0
  0
VERTEX
  5
1694C
330
1694A
100
AcDbEntity
  8
0
100
AcDbVertex
100
AcDb2dVertex
 10
-22.83882160624066
 20
-161.5684687887579
 30
0.0
  0
VERTEX
  5
1694D
330
1694A
100
AcDbEntity
  8
0
100
AcDbVertex
100
AcDb2dVertex
 10
-22.83841317069228
 20
-161.5688246918465
 30
0.0
  0
VERTEX
  5
1694E
330
1694A
100
AcDbEntity
  8
0
100
AcDbVertex
100
AcDb2dVertex
 10
-22.83800465887811
 20
-161.5691807240003
 30
0.0
  0
VERTEX
  5
1694F
330
1694A
100
AcDbEntity
  8
0
100
AcDbVertex
100
AcDb2dVertex
 10
-22.83759607079816
 20
-161.5695368852192
 30
0.0
  0
VERTEX
  5
16950
330
1694A
100
AcDbEntity
  8
0
100
AcDbVertex
100
AcDb2dVertex
 10
-22.83718742111891
 20
-161.5698931637701
 30
0.0
  0
VERTEX
  5
16951
330
1694A
100
AcDbEntity
  8
0
100
AcDbVertex
100
AcDb2dVertex
 10
-22.83677870984039
 20
-161.570249559653
 30
0.0
  0
VERTEX
  5
16952
330
1694A
100
AcDbEntity
  8
0
100
AcDbVertex
100
AcDb2dVertex
 10
-22.8363699442958
 20
-161.5706060611346
 30
0.0
  0
VERTEX
  5
16953
330
1694A
100
AcDbEntity
  8
0
100
AcDbVertex
100
AcDb2dVertex
 10
-22.83596113181845
 20
-161.5709626682151
 30
0.0
  0
VERTEX
  5
16954
330
1694A
100
AcDbEntity
  8
0
100
AcDbVertex
100
AcDb2dVertex
 10
-22.83555227974154
 20
-161.5713193808943
 30
0.0
  0
VERTEX
  5
16955
330
1694A
100
AcDbEntity
  8
0
100
AcDbVertex
100
AcDb2dVertex
 10
-22.83514339393169
 20
-161.5716761757059
 30
0.0
  0
VERTEX
  5
16956
330
1694A
100
AcDbEntity
  8
0
100
AcDbVertex
100
AcDb2dVertex
 10
-22.83473448025548
 20
-161.5720330643831
 30
0.0
  0
VERTEX
  5
16957
330
1694A
100
AcDbEntity
  8
0
100
AcDbVertex
100
AcDb2dVertex
 10
-22.83432554457956
 20
-161.5723900351927
 30
0.0
  0
VERTEX
  5
16958
330
1694A
100
AcDbEntity
  8
0
100
AcDbVertex
100
AcDb2dVertex
 10
-22.83391659423712
 20
-161.5727470881347
 30
0.0
  0
VERTEX
  5
16959
330
1694A
100
AcDbEntity
  8
0
100
AcDbVertex
100
AcDb2dVertex
 10
-22.83350763656143
 20
-161.5731042114758
 30
0.0
  0
VERTEX
  5
1695A
330
1694A
100
AcDbEntity
  8
0
100
AcDbVertex
100
AcDb2dVertex
 10
-22.83309867595245
 20
-161.5734614052161
 30
0.0
  0
VERTEX
  5
1695B
330
1694A
100
AcDbEntity
  8
0
100
AcDbVertex
100
AcDb2dVertex
 10
-22.8326897197434
 20
-161.5738186458893
 30
0.0
  0
VERTEX
  5
1695C
330
1694A
100
AcDbEntity
  8
0
100
AcDbVertex
100
AcDb2dVertex
 10
-22.83228077380091
 20
-161.5741759569616
 30
0.0
  0
VERTEX
  5
1695D
330
1694A
100
AcDbEntity
  8
0
100
AcDbVertex
100
AcDb2dVertex
 10
-22.83187184399157
 20
-161.5745333149667
 30
0.0
  0
VERTEX
  5
1695E
330
1694A
100
AcDbEntity
  8
0
100
AcDbVertex
100
AcDb2dVertex
 10
-22.83146293911528
 20
-161.5748907081714
 30
0.0
  0
VERTEX
  5
1695F
330
1694A
100
AcDbEntity
  8
0
100
AcDbVertex
100
AcDb2dVertex
 10
-22.83105406357198
 20
-161.5752481483089
 30
0.0
  0
VERTEX
  5
16960
330
1694A
100
AcDbEntity
  8
0
100
AcDbVertex
100
AcDb2dVertex
 10
-22.83064522469492
 20
-161.5756056236459
 30
0.0
  0
VERTEX
  5
16961
330
1694A
100
AcDbEntity
  8
0
100
AcDbVertex
100
AcDb2dVertex
 10
-22.83023642688405
 20
-161.5759631224494
 30
0.0
  0
VERTEX
  5
16962
330
1694A
100
AcDbEntity
  8
0
100
AcDbVertex
100
AcDb2dVertex
 10
-22.82982767893928
 20
-161.5763206564525
 30
0.0
  0
VERTEX
  5
16963
330
1694A
100
AcDbEntity
  8
0
100
AcDbVertex
100
AcDb2dVertex
 10
-22.8294189867272
 20
-161.5766782021888
 30
0.0
  0
SEQEND
  5
16964
330
1694A
100
AcDbEntity
  8
0
  0
LINE
  5
16965
330
1F
100
AcDbEntity
  8
0
100
AcDbLine
 10
-22.83922995660141
 20
-161.577392740994
 30
0.0
 11
-22.8392299566014
 21
-161.5681130191321
 31
0.0
  0
ELLIPSE
  5
16966
330
1F
100
AcDbEntity
  8
0
100
AcDbEllipse
 10
-22.81213973660523
 20
-161.8268907832365
 30
0.0
 11
0.276809452064052
 21
-0.000000000000115
 31
0.0
210
0.0
220
0.0
230
1.0
 40
0.9056826144595238
 41
1.472773477106201
 42
1.668819176484525
  0
LINE
  5
16967
330
1F
100
AcDbEntity
  8
0
100
AcDbLine
 10
-22.89639753170537
 20
-161.577392740994
 30
0.0
 11
-22.89696088256398
 21
-161.576189274984
 31
0.0
  0
LINE
  5
16968
330
1F
100
AcDbEntity
  8
0
100
AcDbLine
 10
-22.72731859064647
 20
-161.576189274984
 30
0.0
 11
-22.72788194150509
 21
-161.577392740994
 31
0.0
  0
LINE
  5
16969
330
1F
100
AcDbEntity
  8
0
100
AcDbLine
 10
-22.89413973660522
 20
-161.8670526052921
 30
0.0
 11
-22.89413973660522
 21
-161.8669659911168
 31
0.0
  0
LINE
  5
1696A
330
1F
100
AcDbEntity
  8
0
100
AcDbLine
 10
-22.73013973660523
 20
-161.8670526052921
 30
0.0
 11
-22.73013973660523
 21
-161.8669659911168
 31
0.0
  0
ARC
  5
1696B
330
1F
100
AcDbEntity
  8
0
100
AcDbCircle
 10
-22.81213973660523
 20
-161.8421201687196
 30
0.0
 40
0.2791305555555553
100
AcDbArc
 50
56.44364245383786
 51
72.30943092167014
  0
ARC
  5
1696C
330
1F
100
AcDbEntity
  8
0
100
AcDbCircle
 10
-22.81213973660523
 20
-161.8421201687196
 30
0.0
 40
0.2791305555555553
100
AcDbArc
 50
107.6905690783307
 51
123.5563575461639
  0
LINE
  5
1696D
330
1F
100
AcDbEntity
  8
0
100
AcDbLine
 10
-22.97313973660522
 20
-161.6779896131641
 30
0.0
 11
-22.97313973660522
 21
-161.6220089459751
 31
0.0
  0
LINE
  5
1696E
330
1F
100
AcDbEntity
  8
0
100
AcDbLine
 10
-22.65113973660522
 20
-161.677989613164
 30
0.0
 11
-22.65113973660522
 21
-161.6220089459751
 31
0.0
  0
ARC
  5
1696F
330
1F
100
AcDbEntity
  8
0
100
AcDbCircle
 10
-22.66613973660522
 20
-161.6220089459751
 30
0.0
 40
0.015
100
AcDbArc
 50
0.0
 51
56.44364245383215
  0
ARC
  5
16970
330
1F
100
AcDbEntity
  8
0
100
AcDbCircle
 10
-22.95813973660522
 20
-161.6220089459751
 30
0.0
 40
0.015
100
AcDbArc
 50
123.5563575461561
 51
180.0
  0
ELLIPSE
  5
16971
330
1F
100
AcDbEntity
  8
0
100
AcDbEllipse
 10
-21.66253343739705
 20
-161.8268907832364
 30
0.0
 11
0.2768094520641031
 21
-0.0000000000001153
 31
0.0
210
0.0
220
0.0
230
1.0
 40
0.9056826144595307
 41
1.509254470301525
 42
1.571408119628066
  0
ARC
  5
16972
330
1F
100
AcDbEntity
  8
0
100
AcDbCircle
 10
-21.66253343739705
 20
-161.8421201687194
 30
0.0
 40
0.2791305555555553
100
AcDbArc
 50
107.6905690783298
 51
107.6909026769781
  0
LINE
  5
16973
330
1F
100
AcDbEntity
  8
0
100
AcDbLine
 10
-22.12770666573909
 20
-166.5619344950561
 30
0.0
 11
-22.12770666573909
 21
-166.0776825265522
 31
0.0
  0
LINE
  5
16974
330
1F
100
AcDbEntity
  8
0
100
AcDbLine
 10
-21.91117123266825
 20
-166.0776825265522
 30
0.0
 11
-21.91117123266824
 21
-166.5619344950561
 31
0.0
  0
LINE
  5
16975
330
1F
100
AcDbEntity
  8
0
100
AcDbLine
 10
-22.1277066657391
 20
-174.0422494556858
 30
0.0
 11
-22.12770666573909
 21
-173.5579974871819
 31
0.0
  0
LINE
  5
16976
330
1F
100
AcDbEntity
  8
0
100
AcDbLine
 10
-21.91117123266826
 20
-173.5579974871819
 30
0.0
 11
-21.91117123266826
 21
-174.0422494556858
 31
0.0
  0
LINE
  5
16977
330
1F
100
AcDbEntity
  8
0
100
AcDbLine
 10
-22.12770666573909
 20
-163.0973675659225
 30
0.0
 11
-22.12770666573909
 21
-162.6131155974185
 31
0.0
  0
LINE
  5
16978
330
1F
100
AcDbEntity
  8
0
100
AcDbLine
 10
-21.91117123266825
 20
-162.6131155974185
 30
0.0
 11
-21.91117123266826
 21
-163.0973675659224
 31
0.0
  0
LINE
  5
16979
330
1F
100
AcDbEntity
  8
0
100
AcDbLine
 10
-21.90549648694421
 20
-169.8178400068671
 30
0.0
 11
-21.90549648694422
 21
-170.302091975371
 31
0.0
  0
LINE
  5
1697A
330
1F
100
AcDbEntity
  8
0
100
AcDbLine
 10
-22.12203192001506
 20
-170.302091975371
 30
0.0
 11
-22.12203192001506
 21
-169.8178400068671
 31
0.0
  0
LINE
  5
1697B
330
1F
100
AcDbEntity
  8
0
100
AcDbLine
 10
-21.91117123266827
 20
-177.0225644163156
 30
0.0
 11
-21.91117123266827
 21
-177.5068163848195
 31
0.0
  0
LINE
  5
1697C
330
1F
100
AcDbEntity
  8
0
100
AcDbLine
 10
-22.1277066657391
 20
-177.5068163848195
 30
0.0
 11
-22.1277066657391
 21
-177.0225644163156
 31
0.0
  0
ARC
  5
1697D
330
1F
100
AcDbEntity
  8
0
100
AcDbCircle
 10
-22.01943894920367
 20
-166.5619344950561
 30
0.0
 40
0.1082677165354297
100
AcDbArc
 50
180.0
 51
0.0
  0
ARC
  5
1697E
330
1F
100
AcDbEntity
  8
0
100
AcDbCircle
 10
-22.01943894920365
 20
-166.0776825265522
 30
0.0
 40
0.1082677165354293
100
AcDbArc
 50
0.0
 51
180.0
  0
ARC
  5
1697F
330
1F
100
AcDbEntity
  8
0
100
AcDbCircle
 10
-22.01943894920368
 20
-174.0422494556858
 30
0.0
 40
0.1082677165354292
100
AcDbArc
 50
180.0
 51
0.0
  0
ARC
  5
16980
330
1F
100
AcDbEntity
  8
0
100
AcDbCircle
 10
-22.01943894920367
 20
-173.5579974871819
 30
0.0
 40
0.1082677165354292
100
AcDbArc
 50
0.0
 51
180.0
  0
ARC
  5
16981
330
1F
100
AcDbEntity
  8
0
100
AcDbCircle
 10
-22.01943894920367
 20
-163.0973675659224
 30
0.0
 40
0.1082677165354293
100
AcDbArc
 50
180.0
 51
0.0
  0
ARC
  5
16982
330
1F
100
AcDbEntity
  8
0
100
AcDbCircle
 10
-22.01943894920365
 20
-162.6131155974185
 30
0.0
 40
0.1082677165354293
100
AcDbArc
 50
0.0
 51
180.0
  0
ARC
  5
16983
330
1F
100
AcDbEntity
  8
0
100
AcDbCircle
 10
-22.01376420347965
 20
-169.8178400068671
 30
0.0
 40
0.1082677165354292
100
AcDbArc
 50
0.0
 51
180.0
  0
ARC
  5
16984
330
1F
100
AcDbEntity
  8
0
100
AcDbCircle
 10
-22.01376420347965
 20
-170.302091975371
 30
0.0
 40
0.1082677165354295
100
AcDbArc
 50
180.0
 51
0.0
  0
ARC
  5
16985
330
1F
100
AcDbEntity
  8
0
100
AcDbCircle
 10
-22.01943894920368
 20
-177.0225644163156
 30
0.0
 40
0.1082677165354293
100
AcDbArc
 50
0.0
 51
180.0
  0
ARC
  5
16986
330
1F
100
AcDbEntity
  8
0
100
AcDbCircle
 10
-22.01943894920368
 20
-177.5068163848195
 30
0.0
 40
0.108267716535429
100
AcDbArc
 50
180.0
 51
0.0
  0
LINE
  5
16987
330
1F
100
AcDbEntity
  8
0
100
AcDbLine
 10
-23.39217123266782
 20
-161.8670526052925
 30
0.0
 11
-23.37717123266782
 21
-161.8670526052925
 31
0.0
  0
LINE
  5
16988
330
1F
100
AcDbEntity
  8
0
100
AcDbLine
 10
-23.30717123266784
 20
-161.8670526052925
 30
0.0
 11
-23.37717123266782
 21
-161.8670526052925
 31
0.0
  0
LINE
  5
16989
330
1F
100
AcDbEntity
  8
0
100
AcDbLine
 10
-23.30717123266783
 20
-161.8670526052925
 30
0.0
 11
-23.29217123266784
 21
-161.8670526052925
 31
0.0
  0
LINE
  5
1698A
330
1F
100
AcDbEntity
  8
0
100
AcDbLine
 10
-23.24652901980543
 20
-161.8670526052925
 30
0.0
 11
-23.29217123266804
 21
-161.8670526052925
 31
0.0
  0
LINE
  5
1698B
330
1F
100
AcDbEntity
  8
0
100
AcDbLine
 10
-22.99960100102475
 20
-161.8670526052925
 30
0.0
 11
-23.24652901980543
 21
-161.8670526052925
 31
0.0
  0
LINE
  5
1698C
330
1F
100
AcDbEntity
  8
0
100
AcDbLine
 10
-22.94717123266808
 20
-161.8670526052925
 30
0.0
 11
-22.99960100102476
 21
-161.8670526052925
 31
0.0
  0
LINE
  5
1698D
330
1F
100
AcDbEntity
  8
0
100
AcDbLine
 10
-22.94717123266808
 20
-161.8670526052925
 30
0.0
 11
-22.89199193309757
 21
-161.8670526052925
 31
0.0
  0
LINE
  5
1698E
330
1F
100
AcDbEntity
  8
0
100
AcDbLine
 10
-22.89199193309757
 20
-161.8670526052925
 30
0.0
 11
-22.84425399966881
 21
-161.8670526052925
 31
0.0
  0
LINE
  5
1698F
330
1F
100
AcDbEntity
  8
0
100
AcDbLine
 10
-22.7687445151294
 20
-161.8670526052925
 30
0.0
 11
-22.71776545297548
 21
-161.8670526052925
 31
0.0
  0
LINE
  5
16990
330
1F
100
AcDbEntity
  8
0
100
AcDbLine
 10
-22.71776545297551
 20
-161.8670526052925
 30
0.0
 11
-22.67717123266811
 21
-161.8670526052925
 31
0.0
  0
LINE
  5
16991
330
1F
100
AcDbEntity
  8
0
100
AcDbLine
 10
-22.5858868069429
 20
-161.8670526052925
 30
0.0
 11
-22.67717123266811
 21
-161.8670526052925
 31
0.0
  0
LINE
  5
16992
330
1F
100
AcDbEntity
  8
0
100
AcDbLine
 10
-22.51347856880936
 20
-161.8670526052925
 30
0.0
 11
-22.5858868069429
 21
-161.8670526052925
 31
0.0
  0
LINE
  5
16993
330
1F
100
AcDbEntity
  8
0
100
AcDbLine
 10
-22.49717123266815
 20
-161.8670526052925
 30
0.0
 11
-22.51347856880936
 21
-161.8670526052925
 31
0.0
  0
LINE
  5
16994
330
1F
100
AcDbEntity
  8
0
100
AcDbLine
 10
-22.49717123266808
 20
-161.8670526052925
 30
0.0
 11
-22.48217123266808
 21
-161.8670526052925
 31
0.0
  0
LINE
  5
16995
330
1F
100
AcDbEntity
  8
0
100
AcDbLine
 10
-22.41217123266808
 20
-161.8670526052925
 30
0.0
 11
-22.48217123266808
 21
-161.8670526052925
 31
0.0
  0
LINE
  5
16996
330
1F
100
AcDbEntity
  8
0
100
AcDbLine
 10
-22.41217123266808
 20
-161.8670526052925
 30
0.0
 11
-22.39717123266808
 21
-161.8670526052925
 31
0.0
  0
LINE
  5
16997
330
1F
100
AcDbEntity
  8
0
100
AcDbLine
 10
-22.34717123266818
 20
-161.8670526052925
 30
0.0
 11
-22.39717123266816
 21
-161.8670526052925
 31
0.0
  0
LINE
  5
16998
330
1F
100
AcDbEntity
  8
0
100
AcDbLine
 10
-21.62750047389257
 20
-161.8670526052925
 30
0.0
 11
-22.34717123266818
 21
-161.8670526052925
 31
0.0
  0
LINE
  5
16999
330
1F
100
AcDbEntity
  8
0
100
AcDbLine
 10
-21.57750047389256
 20
-161.8670526052925
 30
0.0
 11
-21.62750047389257
 21
-161.8670526052925
 31
0.0
  0
LINE
  5
1699A
330
1F
100
AcDbEntity
  8
0
100
AcDbLine
 10
-21.57750047389249
 20
-161.8670526052925
 30
0.0
 11
-21.56250047389248
 21
-161.8670526052925
 31
0.0
  0
LINE
  5
1699B
330
1F
100
AcDbEntity
  8
0
100
AcDbLine
 10
-21.4971712326682
 20
-161.8670526052925
 30
0.0
 11
-21.56250047389249
 21
-161.8670526052925
 31
0.0
  0
LINE
  5
1699C
330
1F
100
AcDbEntity
  8
0
100
AcDbLine
 10
-21.49717123266819
 20
-161.8670526052925
 30
0.0
 11
-21.4821712326682
 21
-161.8670526052925
 31
0.0
  0
LINE
  5
1699D
330
1F
100
AcDbEntity
  8
0
100
AcDbLine
 10
-21.43217123266854
 20
-161.8670526052925
 30
0.0
 11
-21.48217123266851
 21
-161.8670526052925
 31
0.0
  0
LINE
  5
1699E
330
1F
100
AcDbEntity
  8
0
100
AcDbLine
 10
-20.95717123266858
 20
-161.8670526052925
 30
0.0
 11
-21.43217123266854
 21
-161.8670526052925
 31
0.0
  0
LINE
  5
1699F
330
1F
100
AcDbEntity
  8
0
100
AcDbLine
 10
-20.95717123266858
 20
-161.8670526052925
 30
0.0
 11
-20.94217123266858
 21
-161.8670526052925
 31
0.0
  0
LINE
  5
169A0
330
1F
100
AcDbEntity
  8
0
100
AcDbLine
 10
-23.39217123266782
 20
-161.8670526052925
 30
0.0
 11
-23.39217123266784
 21
-178.2528793769455
 31
0.0
  0
LINE
  5
169A1
330
1F
100
AcDbEntity
  8
0
100
AcDbLine
 10
-23.37717123266784
 20
-178.2528793769455
 30
0.0
 11
-23.39217123266784
 21
-178.2528793769455
 31
0.0
  0
LINE
  5
169A2
330
1F
100
AcDbEntity
  8
0
100
AcDbLine
 10
-23.37717123266784
 20
-178.2528793769455
 30
0.0
 11
-23.30717123266784
 21
-178.2528793769455
 31
0.0
  0
LINE
  5
169A3
330
1F
100
AcDbEntity
  8
0
100
AcDbLine
 10
-23.29217123266785
 20
-178.2528793769455
 30
0.0
 11
-23.30717123266784
 21
-178.2528793769455
 31
0.0
  0
LINE
  5
169A4
330
1F
100
AcDbEntity
  8
0
100
AcDbLine
 10
-23.29217123266784
 20
-161.8670526052925
 30
0.0
 11
-23.29217123266786
 21
-178.2528793769455
 31
0.0
  0
LINE
  5
169A5
330
1F
100
AcDbEntity
  8
0
100
AcDbLine
 10
-23.29217123266806
 20
-178.2528793769455
 30
0.0
 11
-23.24652901980545
 21
-178.2528793769455
 31
0.0
  0
LINE
  5
169A6
330
1F
100
AcDbEntity
  8
0
100
AcDbLine
 10
-23.24652901980545
 20
-178.2528793769455
 30
0.0
 11
-22.99960100102479
 21
-178.2528793769455
 31
0.0
  0
LINE
  5
169A7
330
1F
100
AcDbEntity
  8
0
100
AcDbLine
 10
-22.99960100102479
 20
-178.2528793769455
 30
0.0
 11
-22.9471712326681
 21
-178.2528793769455
 31
0.0
  0
LINE
  5
169A8
330
1F
100
AcDbEntity
  8
0
100
AcDbLine
 10
-22.89199193309759
 20
-178.2528793769455
 30
0.0
 11
-22.9471712326681
 21
-178.2528793769455
 31
0.0
  0
LINE
  5
169A9
330
1F
100
AcDbEntity
  8
0
100
AcDbLine
 10
-22.84425399966882
 20
-178.2528793769455
 30
0.0
 11
-22.89199193309759
 21
-178.2528793769455
 31
0.0
  0
LINE
  5
169AA
330
1F
100
AcDbEntity
  8
0
100
AcDbLine
 10
-22.71776545297551
 20
-178.2528793769455
 30
0.0
 11
-22.76874451512941
 21
-178.2528793769455
 31
0.0
  0
LINE
  5
169AB
330
1F
100
AcDbEntity
  8
0
100
AcDbLine
 10
-22.67717123266812
 20
-178.2528793769455
 30
0.0
 11
-22.71776545297551
 21
-178.2528793769455
 31
0.0
  0
LINE
  5
169AC
330
1F
100
AcDbEntity
  8
0
100
AcDbLine
 10
-22.67717123266811
 20
-161.8670526052925
 30
0.0
 11
-22.67717123266812
 21
-178.2528793769455
 31
0.0
  0
LINE
  5
169AD
330
1F
100
AcDbEntity
  8
0
100
AcDbLine
 10
-22.67717123266812
 20
-178.2528793769455
 30
0.0
 11
-22.58588680694293
 21
-178.2528793769455
 31
0.0
  0
LINE
  5
169AE
330
1F
100
AcDbEntity
  8
0
100
AcDbLine
 10
-22.58588680694292
 20
-178.2528793769455
 30
0.0
 11
-22.5134785688094
 21
-178.2528793769455
 31
0.0
  0
LINE
  5
169AF
330
1F
100
AcDbEntity
  8
0
100
AcDbLine
 10
-22.5134785688094
 20
-178.2528793769455
 30
0.0
 11
-22.49717123266817
 21
-178.2528793769455
 31
0.0
  0
LINE
  5
169B0
330
1F
100
AcDbEntity
  8
0
100
AcDbLine
 10
-22.49717123266808
 20
-161.8670526052925
 30
0.0
 11
-22.49717123266811
 21
-178.2528793769455
 31
0.0
  0
LINE
  5
169B1
330
1F
100
AcDbEntity
  8
0
100
AcDbLine
 10
-22.48217123266811
 20
-178.2528793769455
 30
0.0
 11
-22.49717123266812
 21
-178.2528793769455
 31
0.0
  0
LINE
  5
169B2
330
1F
100
AcDbEntity
  8
0
100
AcDbLine
 10
-22.48217123266811
 20
-178.2528793769455
 30
0.0
 11
-22.41217123266811
 21
-178.2528793769455
 31
0.0
  0
LINE
  5
169B3
330
1F
100
AcDbEntity
  8
0
100
AcDbLine
 10
-22.39717123266812
 20
-178.2528793769455
 30
0.0
 11
-22.41217123266811
 21
-178.2528793769455
 31
0.0
  0
LINE
  5
169B4
330
1F
100
AcDbEntity
  8
0
100
AcDbLine
 10
-22.39717123266808
 20
-161.8670526052925
 30
0.0
 11
-22.39717123266812
 21
-178.2528793769455
 31
0.0
  0
LINE
  5
169B5
330
1F
100
AcDbEntity
  8
0
100
AcDbLine
 10
-22.39717123266819
 20
-178.2528793769455
 30
0.0
 11
-22.34717123266822
 21
-178.2528793769455
 31
0.0
  0
LINE
  5
169B6
330
1F
100
AcDbEntity
  8
0
100
AcDbLine
 10
-22.34717123266821
 20
-178.2528793769455
 30
0.0
 11
-21.62750047389259
 21
-178.2528793769455
 31
0.0
  0
LINE
  5
169B7
330
1F
100
AcDbEntity
  8
0
100
AcDbLine
 10
-21.62750047389259
 20
-178.2528793769455
 30
0.0
 11
-21.57750047389258
 21
-178.2528793769455
 31
0.0
  0
LINE
  5
169B8
330
1F
100
AcDbEntity
  8
0
100
AcDbLine
 10
-21.57750047389249
 20
-161.8670526052925
 30
0.0
 11
-21.5775004738925
 21
-178.2528793769455
 31
0.0
  0
LINE
  5
169B9
330
1F
100
AcDbEntity
  8
0
100
AcDbLine
 10
-21.5625004738925
 20
-178.2528793769455
 30
0.0
 11
-21.57750047389251
 21
-178.2528793769455
 31
0.0
  0
LINE
  5
169BA
330
1F
100
AcDbEntity
  8
0
100
AcDbLine
 10
-21.5625004738925
 20
-178.2528793769455
 30
0.0
 11
-21.49717123266821
 21
-178.2528793769455
 31
0.0
  0
LINE
  5
169BB
330
1F
100
AcDbEntity
  8
0
100
AcDbLine
 10
-21.48217123266822
 20
-178.2528793769455
 30
0.0
 11
-21.49717123266821
 21
-178.2528793769455
 31
0.0
  0
LINE
  5
169BC
330
1F
100
AcDbEntity
  8
0
100
AcDbLine
 10
-21.48217123266821
 20
-161.8670526052925
 30
0.0
 11
-21.48217123266822
 21
-178.2528793769455
 31
0.0
  0
LINE
  5
169BD
330
1F
100
AcDbEntity
  8
0
100
AcDbLine
 10
-21.48217123266853
 20
-178.2528793769455
 30
0.0
 11
-21.43217123266854
 21
-178.2528793769455
 31
0.0
  0
LINE
  5
169BE
330
1F
100
AcDbEntity
  8
0
100
AcDbLine
 10
-21.43217123266854
 20
-178.2528793769455
 30
0.0
 11
-20.95717123266862
 21
-178.2528793769455
 31
0.0
  0
LINE
  5
169BF
330
1F
100
AcDbEntity
  8
0
100
AcDbLine
 10
-20.9421712326686
 20
-178.2528793769455
 30
0.0
 11
-20.9571712326686
 21
-178.2528793769455
 31
0.0
  0
LINE
  5
169C0
330
1F
100
AcDbEntity
  8
0
100
AcDbLine
 10
-20.94217123266858
 20
-161.8670526052925
 30
0.0
 11
-20.9421712326686
 21
-178.2528793769455
 31
0.0
  0
LINE
  5
169C1
330
1F
100
AcDbEntity
  8
0
100
AcDbLine
 10
-22.94717123266808
 20
-161.8670526052925
 30
0.0
 11
-22.9471712326681
 21
-178.2528793769455
 31
0.0
  0
LINE
  5
169C2
330
1F
100
AcDbEntity
  8
0
100
AcDbLine
 10
-22.84425399966881
 20
-161.8670526052925
 30
0.0
 11
-22.84425399966882
 21
-178.2528793769455
 31
0.0
  0
LINE
  5
169C3
330
1F
100
AcDbEntity
  8
0
100
AcDbLine
 10
-22.7687445151294
 20
-161.8670526052925
 30
0.0
 11
-22.76874451512941
 21
-178.2528793769455
 31
0.0
  0
LINE
  5
169C4
330
1F
100
AcDbEntity
  8
0
100
AcDbLine
 10
-19.27710036652765
 20
-177.8309659911183
 30
0.0
 11
-19.27710036652765
 21
-177.9289659911183
 31
0.0
  0
LINE
  5
169C5
330
1F
100
AcDbEntity
  8
0
100
AcDbLine
 10
-19.43694288621265
 20
-177.8309659911183
 30
0.0
 11
-19.27710036652765
 21
-177.8309659911183
 31
0.0
  0
LINE
  5
169C6
330
1F
100
AcDbEntity
  8
0
100
AcDbLine
 10
-19.43694288621266
 20
-177.9289659911183
 30
0.0
 11
-19.43694288621265
 21
-177.8309659911183
 31
0.0
  0
LINE
  5
169C7
330
1F
100
AcDbEntity
  8
0
100
AcDbLine
 10
-19.27710036652765
 20
-177.9289659911183
 30
0.0
 11
-19.43694288621265
 21
-177.9289659911183
 31
0.0
  0
LINE
  5
169C8
330
1F
100
AcDbEntity
  8
0
100
AcDbLine
 10
-20.52710036652744
 20
-177.8309659911183
 30
0.0
 11
-20.52710036652744
 21
-177.9289659911183
 31
0.0
  0
LINE
  5
169C9
330
1F
100
AcDbEntity
  8
0
100
AcDbLine
 10
-20.68694288621244
 20
-177.8309659911183
 30
0.0
 11
-20.52710036652744
 21
-177.8309659911183
 31
0.0
  0
LINE
  5
169CA
330
1F
100
AcDbEntity
  8
0
100
AcDbLine
 10
-20.68694288621244
 20
-177.9289659911183
 30
0.0
 11
-20.68694288621243
 21
-177.8309659911183
 31
0.0
  0
LINE
  5
169CB
330
1F
100
AcDbEntity
  8
0
100
AcDbLine
 10
-20.52710036652744
 20
-177.9289659911183
 30
0.0
 11
-20.68694288621244
 21
-177.9289659911183
 31
0.0
  0
LINE
  5
169CC
330
1F
100
AcDbEntity
  8
0
100
AcDbLine
 10
-9.92694288621444
 20
-177.9289659911183
 30
0.0
 11
-9.926942886214419
 21
-177.8309659911183
 31
0.0
  0
LINE
  5
169CD
330
1F
100
AcDbEntity
  8
0
100
AcDbLine
 10
-9.767100366529426
 20
-177.9289659911183
 30
0.0
 11
-9.926942886214419
 21
-177.9289659911183
 31
0.0
  0
LINE
  5
169CE
330
1F
100
AcDbEntity
  8
0
100
AcDbLine
 10
-9.767100366529412
 20
-177.8309659911183
 30
0.0
 11
-9.767100366529426
 21
-177.9289659911183
 31
0.0
  0
LINE
  5
169CF
330
1F
100
AcDbEntity
  8
0
100
AcDbLine
 10
-9.926942886214419
 20
-177.8309659911183
 30
0.0
 11
-9.767100366529412
 21
-177.8309659911183
 31
0.0
  0
LINE
  5
169D0
330
1F
100
AcDbEntity
  8
0
100
AcDbLine
 10
-11.1769428862142
 20
-177.9289659911183
 30
0.0
 11
-11.1769428862142
 21
-177.8309659911183
 31
0.0
  0
LINE
  5
169D1
330
1F
100
AcDbEntity
  8
0
100
AcDbLine
 10
-11.0171003665292
 20
-177.9289659911183
 30
0.0
 11
-11.1769428862142
 21
-177.9289659911183
 31
0.0
  0
LINE
  5
169D2
330
1F
100
AcDbEntity
  8
0
100
AcDbLine
 10
-11.01710036652919
 20
-177.8309659911183
 30
0.0
 11
-11.0171003665292
 21
-177.9289659911183
 31
0.0
  0
LINE
  5
169D3
330
1F
100
AcDbEntity
  8
0
100
AcDbLine
 10
-11.1769428862142
 20
-177.8309659911183
 30
0.0
 11
-11.01710036652919
 21
-177.8309659911183
 31
0.0
  0
LINE
  5
169D4
330
1F
100
AcDbEntity
  8
0
100
AcDbLine
 10
-14.7471003665285
 20
-177.8309659911183
 30
0.0
 11
-14.74710036652851
 21
-177.9289659911183
 31
0.0
  0
LINE
  5
169D5
330
1F
100
AcDbEntity
  8
0
100
AcDbLine
 10
-14.90694288621351
 20
-177.8309659911183
 30
0.0
 11
-14.74710036652848
 21
-177.8309659911183
 31
0.0
  0
LINE
  5
169D6
330
1F
100
AcDbEntity
  8
0
100
AcDbLine
 10
-14.90694288621351
 20
-177.9289659911183
 30
0.0
 11
-14.90694288621351
 21
-177.8309659911183
 31
0.0
  0
LINE
  5
169D7
330
1F
100
AcDbEntity
  8
0
100
AcDbLine
 10
-14.7471003665285
 20
-177.9289659911183
 30
0.0
 11
-14.90694288621351
 21
-177.9289659911183
 31
0.0
  0
LINE
  5
169D8
330
1F
100
AcDbEntity
  8
0
100
AcDbLine
 10
-13.49710036652873
 20
-177.8309659911183
 30
0.0
 11
-13.49710036652873
 21
-177.9289659911183
 31
0.0
  0
LINE
  5
169D9
330
1F
100
AcDbEntity
  8
0
100
AcDbLine
 10
-13.65694288621375
 20
-177.8309659911183
 30
0.0
 11
-13.49710036652873
 21
-177.8309659911183
 31
0.0
  0
LINE
  5
169DA
330
1F
100
AcDbEntity
  8
0
100
AcDbLine
 10
-13.65694288621375
 20
-177.9289659911183
 30
0.0
 11
-13.65694288621375
 21
-177.8309659911183
 31
0.0
  0
LINE
  5
169DB
330
1F
100
AcDbEntity
  8
0
100
AcDbLine
 10
-13.49710036652875
 20
-177.9289659911183
 30
0.0
 11
-13.65694288621375
 21
-177.9289659911183
 31
0.0
  0
LINE
  5
169DC
330
1F
100
AcDbEntity
  8
0
100
AcDbLine
 10
-10.26213973661089
 20
-177.6259659911183
 30
0.0
 11
-10.73213973661082
 21
-177.6259659911183
 31
0.0
  0
LINE
  5
169DD
330
1F
100
AcDbEntity
  8
0
100
AcDbLine
 10
-13.99213973661021
 20
-177.6259659911183
 30
0.0
 11
-14.46213973661012
 21
-177.6259659911183
 31
0.0
  0
LINE
  5
169DE
330
1F
100
AcDbEntity
  8
0
100
AcDbLine
 10
-19.77213973660912
 20
-177.6259659911183
 30
0.0
 11
-20.24213973660905
 21
-177.6259659911183
 31
0.0
  0
LINE
  5
169DF
330
1F
100
AcDbEntity
  8
0
100
AcDbLine
 10
-20.24213973660905
 20
-178.0009659911183
 30
0.0
 11
-19.77213973660915
 21
-178.0009659911183
 31
0.0
  0
LINE
  5
169E0
330
1F
100
AcDbEntity
  8
0
100
AcDbLine
 10
-14.46213973661012
 20
-178.0009659911183
 30
0.0
 11
-13.99213973661021
 21
-178.0009659911183
 31
0.0
  0
LINE
  5
169E1
330
1F
100
AcDbEntity
  8
0
100
AcDbLine
 10
-10.7321397366108
 20
-178.0009659911183
 30
0.0
 11
-10.26213973661092
 21
-178.0009659911183
 31
0.0
  0
LINE
  5
169E2
330
1F
100
AcDbEntity
  8
0
100
AcDbLine
 10
-19.27710036652769
 20
-162.0809659911193
 30
0.0
 11
-19.27710036652771
 21
-162.1789659911193
 31
0.0
  0
LINE
  5
169E3
330
1F
100
AcDbEntity
  8
0
100
AcDbLine
 10
-19.43694288621271
 20
-162.0809659911193
 30
0.0
 11
-19.27710036652769
 21
-162.0809659911193
 31
0.0
  0
LINE
  5
169E4
330
1F
100
AcDbEntity
  8
0
100
AcDbLine
 10
-19.43694288621271
 20
-162.1789659911193
 30
0.0
 11
-19.43694288621271
 21
-162.0809659911193
 31
0.0
  0
LINE
  5
169E5
330
1F
100
AcDbEntity
  8
0
100
AcDbLine
 10
-19.27710036652771
 20
-162.1789659911193
 30
0.0
 11
-19.43694288621271
 21
-162.1789659911193
 31
0.0
  0
LINE
  5
169E6
330
1F
100
AcDbEntity
  8
0
100
AcDbLine
 10
-20.52710036652744
 20
-162.0809659911193
 30
0.0
 11
-20.52710036652744
 21
-162.1789659911193
 31
0.0
  0
LINE
  5
169E7
330
1F
100
AcDbEntity
  8
0
100
AcDbLine
 10
-20.68694288621244
 20
-162.0809659911193
 30
0.0
 11
-20.52710036652744
 21
-162.0809659911193
 31
0.0
  0
LINE
  5
169E8
330
1F
100
AcDbEntity
  8
0
100
AcDbLine
 10
-20.68694288621245
 20
-162.1789659911193
 30
0.0
 11
-20.68694288621244
 21
-162.0809659911193
 31
0.0
  0
LINE
  5
169E9
330
1F
100
AcDbEntity
  8
0
100
AcDbLine
 10
-20.52710036652744
 20
-162.1789659911193
 30
0.0
 11
-20.68694288621246
 21
-162.1789659911193
 31
0.0
  0
LINE
  5
169EA
330
1F
100
AcDbEntity
  8
0
100
AcDbLine
 10
-9.926942886214661
 20
-162.1789659911194
 30
0.0
 11
-9.926942886214646
 21
-162.0809659911193
 31
0.0
  0
LINE
  5
169EB
330
1F
100
AcDbEntity
  8
0
100
AcDbLine
 10
-9.767100366529646
 20
-162.1789659911194
 30
0.0
 11
-9.926942886214668
 21
-162.1789659911194
 31
0.0
  0
LINE
  5
169EC
330
1F
100
AcDbEntity
  8
0
100
AcDbLine
 10
-9.767100366529639
 20
-162.0809659911193
 30
0.0
 11
-9.767100366529646
 21
-162.1789659911194
 31
0.0
  0
LINE
  5
169ED
330
1F
100
AcDbEntity
  8
0
100
AcDbLine
 10
-9.926942886214646
 20
-162.0809659911193
 30
0.0
 11
-9.767100366529646
 21
-162.0809659911193
 31
0.0
  0
LINE
  5
169EE
330
1F
100
AcDbEntity
  8
0
100
AcDbLine
 10
-11.17694288621441
 20
-162.1789659911194
 30
0.0
 11
-11.17694288621439
 21
-162.0809659911193
 31
0.0
  0
LINE
  5
169EF
330
1F
100
AcDbEntity
  8
0
100
AcDbLine
 10
-11.01710036652938
 20
-162.1789659911194
 30
0.0
 11
-11.17694288621439
 21
-162.1789659911194
 31
0.0
  0
LINE
  5
169F0
330
1F
100
AcDbEntity
  8
0
100
AcDbLine
 10
-11.01710036652938
 20
-162.0809659911193
 30
0.0
 11
-11.01710036652939
 21
-162.1789659911194
 31
0.0
  0
LINE
  5
169F1
330
1F
100
AcDbEntity
  8
0
100
AcDbLine
 10
-11.17694288621439
 20
-162.0809659911193
 30
0.0
 11
-11.01710036652938
 21
-162.0809659911193
 31
0.0
  0
LINE
  5
169F2
330
1F
100
AcDbEntity
  8
0
100
AcDbLine
 10
-14.74710036652862
 20
-162.0809659911193
 30
0.0
 11
-14.74710036652865
 21
-162.1789659911193
 31
0.0
  0
LINE
  5
169F3
330
1F
100
AcDbEntity
  8
0
100
AcDbLine
 10
-14.90694288621362
 20
-162.0809659911193
 30
0.0
 11
-14.74710036652862
 21
-162.0809659911193
 31
0.0
  0
LINE
  5
169F4
330
1F
100
AcDbEntity
  8
0
100
AcDbLine
 10
-14.90694288621362
 20
-162.1789659911193
 30
0.0
 11
-14.90694288621362
 21
-162.0809659911193
 31
0.0
  0
LINE
  5
169F5
330
1F
100
AcDbEntity
  8
0
100
AcDbLine
 10
-14.74710036652865
 20
-162.1789659911193
 30
0.0
 11
-14.90694288621365
 21
-162.1789659911193
 31
0.0
  0
LINE
  5
169F6
330
1F
100
AcDbEntity
  8
0
100
AcDbLine
 10
-13.4971003665289
 20
-162.0809659911193
 30
0.0
 11
-13.4971003665289
 21
-162.1789659911193
 31
0.0
  0
LINE
  5
169F7
330
1F
100
AcDbEntity
  8
0
100
AcDbLine
 10
-13.6569428862139
 20
-162.0809659911193
 30
0.0
 11
-13.49710036652888
 21
-162.0809659911193
 31
0.0
  0
LINE
  5
169F8
330
1F
100
AcDbEntity
  8
0
100
AcDbLine
 10
-13.6569428862139
 20
-162.1789659911193
 30
0.0
 11
-13.6569428862139
 21
-162.0809659911193
 31
0.0
  0
LINE
  5
169F9
330
1F
100
AcDbEntity
  8
0
100
AcDbLine
 10
-13.4971003665289
 20
-162.1789659911193
 30
0.0
 11
-13.6569428862139
 21
-162.1789659911193
 31
0.0
  0
LINE
  5
169FA
330
1F
100
AcDbEntity
  8
0
100
AcDbLine
 10
-10.2621397366111
 20
-161.8759659911194
 30
0.0
 11
-10.73213973661099
 21
-161.8759659911194
 31
0.0
  0
LINE
  5
169FB
330
1F
100
AcDbEntity
  8
0
100
AcDbLine
 10
-13.99213973661032
 20
-161.8759659911194
 30
0.0
 11
-14.46213973661022
 21
-161.8759659911194
 31
0.0
  0
LINE
  5
169FC
330
1F
100
AcDbEntity
  8
0
100
AcDbLine
 10
-19.77213973660915
 20
-161.8759659911194
 30
0.0
 11
-20.24213973660906
 21
-161.8759659911194
 31
0.0
  0
LINE
  5
169FD
330
1F
100
AcDbEntity
  8
0
100
AcDbLine
 10
-20.24213973660905
 20
-162.2509659911193
 30
0.0
 11
-19.77213973660915
 21
-162.2509659911193
 31
0.0
  0
LINE
  5
169FE
330
1F
100
AcDbEntity
  8
0
100
AcDbLine
 10
-14.46213973661022
 20
-162.2509659911193
 30
0.0
 11
-13.99213973661032
 21
-162.2509659911193
 31
0.0
  0
LINE
  5
169FF
330
1F
100
AcDbEntity
  8
0
100
AcDbLine
 10
-10.73213973661099
 20
-162.2509659911193
 30
0.0
 11
-10.2621397366111
 21
-162.2509659911193
 31
0.0
  0
LINE
  5
16A00
330
1F
100
AcDbEntity
  8
0
100
AcDbLine
 10
-6.65713973660879
 20
-178.2529659911183
 30
0.0
 11
-6.657139736608783
 21
-161.8709659911194
 31
0.0
  0
LINE
  5
16A01
330
1F
100
AcDbEntity
  8
0
100
AcDbLine
 10
-20.24213973660583
 20
-161.8709659911193
 30
0.0
 11
-20.89213973660569
 21
-161.8709659911193
 31
0.0
  0
LINE
  5
16A02
330
1F
100
AcDbEntity
  8
0
100
AcDbLine
 10
-20.89213973660569
 20
-178.2529659911183
 30
0.0
 11
-20.89213973660569
 21
-161.8709659911193
 31
0.0
  0
LINE
  5
16A03
330
1F
100
AcDbEntity
  8
0
100
AcDbLine
 10
-6.702021626372548
 20
-178.2529659911183
 30
0.0
 11
-20.89213973660572
 21
-178.2529659911183
 31
0.0
  0
LINE
  5
16A04
330
1F
100
AcDbEntity
  8
0
100
AcDbLine
 10
-6.702021626372541
 20
-161.8709659911194
 30
0.0
 11
-10.262139736608
 21
-161.8709659911194
 31
0.0
  0
LINE
  5
16A05
330
1F
100
AcDbEntity
  8
0
100
AcDbLine
 10
-10.7321397366079
 20
-161.8709659911194
 30
0.0
 11
-13.99213973660719
 21
-161.8709659911194
 31
0.0
  0
LINE
  5
16A06
330
1F
100
AcDbEntity
  8
0
100
AcDbLine
 10
-14.46213973660707
 20
-161.8709659911194
 30
0.0
 11
-19.77213973660594
 21
-161.8709659911193
 31
0.0
  0
LINE
  5
16A07
330
1F
100
AcDbEntity
  8
0
100
AcDbLine
 10
-20.94217123266522
 20
-161.8709659911193
 30
0.0
 11
-20.93428342793576
 21
-161.8709659911193
 31
0.0
  0
LINE
  5
16A08
330
1F
100
AcDbEntity
  8
0
100
AcDbLine
 10
-20.89213973660569
 20
-161.8709659911193
 30
0.0
 11
-20.93428342793576
 21
-161.8709659911193
 31
0.0
  0
LINE
  5
16A09
330
1F
100
AcDbEntity
  8
0
100
AcDbLine
 10
-6.702021626372541
 20
-161.8709659911194
 30
0.0
 11
-6.657139736608783
 21
-161.8709659911194
 31
0.0
  0
LINE
  5
16A0A
330
1F
100
AcDbEntity
  8
0
100
AcDbLine
 10
-6.702021626372548
 20
-178.2529659911183
 30
0.0
 11
-6.65713973660879
 21
-178.2529659911183
 31
0.0
  0
LINE
  5
16A0B
330
1F
100
AcDbEntity
  8
0
100
AcDbLine
 10
-20.89213973660569
 20
-178.2529659911183
 30
0.0
 11
-20.93428342793577
 21
-178.2529659911183
 31
0.0
  0
LINE
  5
16A0C
330
1F
100
AcDbEntity
  8
0
100
AcDbLine
 10
-20.93812398857035
 20
-178.2529659911183
 30
0.0
 11
-20.93428342793577
 21
-178.2529659911183
 31
0.0
  0
LINE
  5
16A0D
330
1F
100
AcDbEntity
  8
0
100
AcDbLine
 10
-21.56713973660553
 20
-178.2529659911183
 30
0.0
 11
-21.56713973660553
 21
-178.2528793769456
 31
0.0
  0
LINE
  5
16A0E
330
1F
100
AcDbEntity
  8
0
100
AcDbLine
 10
-20.24213973660583
 20
-162.3209659911193
 30
0.0
 11
-20.24213973660583
 21
-161.8709659911193
 31
0.0
  0
LINE
  5
16A0F
330
1F
100
AcDbEntity
  8
0
100
AcDbLine
 10
-10.262139736608
 20
-161.8709659911194
 30
0.0
 11
-10.262139736608
 21
-162.3209659911194
 31
0.0
  0
LINE
  5
16A10
330
1F
100
AcDbEntity
  8
0
100
AcDbLine
 10
-10.73213973660787
 20
-162.3209659911194
 30
0.0
 11
-10.7321397366079
 21
-161.8709659911194
 31
0.0
  0
LINE
  5
16A11
330
1F
100
AcDbEntity
  8
0
100
AcDbLine
 10
-13.99213973660718
 20
-161.8709659911194
 30
0.0
 11
-13.99213973660718
 21
-162.3209659911193
 31
0.0
  0
LINE
  5
16A12
330
1F
100
AcDbEntity
  8
0
100
AcDbLine
 10
-14.46213973660707
 20
-162.3209659911193
 30
0.0
 11
-14.46213973660707
 21
-161.8709659911194
 31
0.0
  0
LINE
  5
16A13
330
1F
100
AcDbEntity
  8
0
100
AcDbLine
 10
-19.77213973660594
 20
-161.8709659911193
 30
0.0
 11
-19.77213973660595
 21
-162.3209659911193
 31
0.0
  0
LINE
  5
16A14
330
1F
100
AcDbEntity
  8
0
100
AcDbLine
 10
-11.23713973660776
 20
-162.1859659911193
 30
0.0
 11
-11.23713973660776
 21
-162.0299659911194
 31
0.0
  0
LINE
  5
16A15
330
1F
100
AcDbEntity
  8
0
100
AcDbLine
 10
-11.23713973660776
 20
-162.0299659911194
 30
0.0
 11
-10.98713973660782
 21
-162.0299659911194
 31
0.0
  0
LINE
  5
16A16
330
1F
100
AcDbEntity
  8
0
100
AcDbLine
 10
-10.98713973660782
 20
-162.0299659911194
 30
0.0
 11
-10.98713973660782
 21
-162.1859659911193
 31
0.0
  0
LINE
  5
16A17
330
1F
100
AcDbEntity
  8
0
100
AcDbLine
 10
-10.98713973660782
 20
-162.1859659911193
 30
0.0
 11
-11.23713973660776
 21
-162.1859659911193
 31
0.0
  0
LINE
  5
16A18
330
1F
100
AcDbEntity
  8
0
100
AcDbLine
 10
-13.71713973660724
 20
-162.1859659911193
 30
0.0
 11
-13.71713973660724
 21
-162.0299659911194
 31
0.0
  0
LINE
  5
16A19
330
1F
100
AcDbEntity
  8
0
100
AcDbLine
 10
-13.71713973660724
 20
-162.0299659911194
 30
0.0
 11
-13.46713973660728
 21
-162.0299659911194
 31
0.0
  0
LINE
  5
16A1A
330
1F
100
AcDbEntity
  8
0
100
AcDbLine
 10
-13.46713973660728
 20
-162.0299659911194
 30
0.0
 11
-13.46713973660728
 21
-162.1859659911193
 31
0.0
  0
LINE
  5
16A1B
330
1F
100
AcDbEntity
  8
0
100
AcDbLine
 10
-13.46713973660728
 20
-162.1859659911193
 30
0.0
 11
-13.71713973660724
 21
-162.1859659911193
 31
0.0
  0
LINE
  5
16A1C
330
1F
100
AcDbEntity
  8
0
100
AcDbLine
 10
-14.96713973660697
 20
-162.1859659911193
 30
0.0
 11
-14.96713973660697
 21
-162.0299659911194
 31
0.0
  0
LINE
  5
16A1D
330
1F
100
AcDbEntity
  8
0
100
AcDbLine
 10
-14.96713973660697
 20
-162.0299659911194
 30
0.0
 11
-14.71713973660704
 21
-162.0299659911194
 31
0.0
  0
LINE
  5
16A1E
330
1F
100
AcDbEntity
  8
0
100
AcDbLine
 10
-14.71713973660704
 20
-162.0299659911194
 30
0.0
 11
-14.71713973660704
 21
-162.1859659911193
 31
0.0
  0
LINE
  5
16A1F
330
1F
100
AcDbEntity
  8
0
100
AcDbLine
 10
-14.71713973660704
 20
-162.1859659911193
 30
0.0
 11
-14.96713973660697
 21
-162.1859659911193
 31
0.0
  0
LINE
  5
16A20
330
1F
100
AcDbEntity
  8
0
100
AcDbLine
 10
-19.49713973660599
 20
-162.1859659911193
 30
0.0
 11
-19.49713973660599
 21
-162.0299659911194
 31
0.0
  0
LINE
  5
16A21
330
1F
100
AcDbEntity
  8
0
100
AcDbLine
 10
-19.49713973660599
 20
-162.0299659911194
 30
0.0
 11
-19.24713973660604
 21
-162.0299659911194
 31
0.0
  0
LINE
  5
16A22
330
1F
100
AcDbEntity
  8
0
100
AcDbLine
 10
-19.24713973660604
 20
-162.0299659911194
 30
0.0
 11
-19.24713973660604
 21
-162.1859659911193
 31
0.0
  0
LINE
  5
16A23
330
1F
100
AcDbEntity
  8
0
100
AcDbLine
 10
-19.24713973660604
 20
-162.1859659911193
 30
0.0
 11
-19.49713973660599
 21
-162.1859659911193
 31
0.0
  0
LINE
  5
16A24
330
1F
100
AcDbEntity
  8
0
100
AcDbLine
 10
-20.74713973660573
 20
-162.1859659911193
 30
0.0
 11
-20.74713973660573
 21
-162.0299659911193
 31
0.0
  0
LINE
  5
16A25
330
1F
100
AcDbEntity
  8
0
100
AcDbLine
 10
-20.74713973660573
 20
-162.0299659911193
 30
0.0
 11
-20.49713973660578
 21
-162.0299659911193
 31
0.0
  0
LINE
  5
16A26
330
1F
100
AcDbEntity
  8
0
100
AcDbLine
 10
-20.49713973660578
 20
-162.0299659911193
 30
0.0
 11
-20.49713973660578
 21
-162.1859659911193
 31
0.0
  0
LINE
  5
16A27
330
1F
100
AcDbEntity
  8
0
100
AcDbLine
 10
-20.49713973660579
 20
-162.1859659911193
 30
0.0
 11
-20.74713973660573
 21
-162.1859659911193
 31
0.0
  0
LINE
  5
16A28
330
1F
100
AcDbEntity
  8
0
100
AcDbLine
 10
-9.98713973660805
 20
-162.1859659911193
 30
0.0
 11
-9.98713973660805
 21
-162.0299659911194
 31
0.0
  0
LINE
  5
16A29
330
1F
100
AcDbEntity
  8
0
100
AcDbLine
 10
-9.987139736608042
 20
-162.0299659911194
 30
0.0
 11
-9.737139736608106
 21
-162.0299659911194
 31
0.0
  0
LINE
  5
16A2A
330
1F
100
AcDbEntity
  8
0
100
AcDbLine
 10
-9.737139736608106
 20
-162.0299659911194
 30
0.0
 11
-9.737139736608106
 21
-162.1859659911193
 31
0.0
  0
LINE
  5
16A2B
330
1F
100
AcDbEntity
  8
0
100
AcDbLine
 10
-9.737139736608106
 20
-162.1859659911193
 30
0.0
 11
-9.98713973660805
 21
-162.1859659911193
 31
0.0
  0
LINE
  5
16A2C
330
1F
100
AcDbEntity
  8
0
100
AcDbLine
 10
-14.4621397366071
 20
-178.0709659911183
 30
0.0
 11
-14.4621397366071
 21
-177.6129659911183
 31
0.0
  0
LINE
  5
16A2D
330
1F
100
AcDbEntity
  8
0
100
AcDbLine
 10
-14.4621397366071
 20
-177.6129659911183
 30
0.0
 11
-13.9921397366072
 21
-177.6129659911183
 31
0.0
  0
LINE
  5
16A2E
330
1F
100
AcDbEntity
  8
0
100
AcDbLine
 10
-13.99213973660719
 20
-177.6129659911183
 30
0.0
 11
-13.99213973660719
 21
-178.0709659911183
 31
0.0
  0
LINE
  5
16A2F
330
1F
100
AcDbEntity
  8
0
100
AcDbLine
 10
-20.24213973660586
 20
-178.0709659911183
 30
0.0
 11
-20.24213973660586
 21
-177.6129659911183
 31
0.0
  0
LINE
  5
16A30
330
1F
100
AcDbEntity
  8
0
100
AcDbLine
 10
-20.24213973660586
 20
-177.6129659911183
 30
0.0
 11
-19.77213973660594
 21
-177.6129659911183
 31
0.0
  0
LINE
  5
16A31
330
1F
100
AcDbEntity
  8
0
100
AcDbLine
 10
-19.77213973660595
 20
-177.6129659911183
 30
0.0
 11
-19.77213973660596
 21
-178.0709659911183
 31
0.0
  0
LINE
  5
16A32
330
1F
100
AcDbEntity
  8
0
100
AcDbLine
 10
-10.7321397366079
 20
-178.0709659911183
 30
0.0
 11
-10.7321397366079
 21
-177.6129659911183
 31
0.0
  0
LINE
  5
16A33
330
1F
100
AcDbEntity
  8
0
100
AcDbLine
 10
-10.7321397366079
 20
-177.6129659911183
 30
0.0
 11
-10.262139736608
 21
-177.6129659911183
 31
0.0
  0
LINE
  5
16A34
330
1F
100
AcDbEntity
  8
0
100
AcDbLine
 10
-10.262139736608
 20
-177.6129659911183
 30
0.0
 11
-10.262139736608
 21
-178.0709659911183
 31
0.0
  0
LINE
  5
16A35
330
1F
100
AcDbEntity
  8
0
100
AcDbLine
 10
-9.737139736608114
 20
-177.7799659911183
 30
0.0
 11
-9.737139736608114
 21
-177.9359659911183
 31
0.0
  0
LINE
  5
16A36
330
1F
100
AcDbEntity
  8
0
100
AcDbLine
 10
-9.737139736608114
 20
-177.9359659911183
 30
0.0
 11
-9.987139736608071
 21
-177.9359659911183
 31
0.0
  0
LINE
  5
16A37
330
1F
100
AcDbEntity
  8
0
100
AcDbLine
 10
-9.987139736608071
 20
-177.9359659911183
 30
0.0
 11
-9.98713973660805
 21
-177.7799659911183
 31
0.0
  0
LINE
  5
16A38
330
1F
100
AcDbEntity
  8
0
100
AcDbLine
 10
-9.98713973660805
 20
-177.7799659911183
 30
0.0
 11
-9.737139736608114
 21
-177.7799659911183
 31
0.0
  0
LINE
  5
16A39
330
1F
100
AcDbEntity
  8
0
100
AcDbLine
 10
-19.24713973660604
 20
-177.7799659911183
 30
0.0
 11
-19.24713973660604
 21
-177.9359659911183
 31
0.0
  0
LINE
  5
16A3A
330
1F
100
AcDbEntity
  8
0
100
AcDbLine
 10
-19.24713973660604
 20
-177.9359659911183
 30
0.0
 11
-19.49713973660601
 21
-177.9359659911183
 31
0.0
  0
LINE
  5
16A3B
330
1F
100
AcDbEntity
  8
0
100
AcDbLine
 10
-19.49713973660601
 20
-177.9359659911183
 30
0.0
 11
-19.49713973660601
 21
-177.7799659911183
 31
0.0
  0
LINE
  5
16A3C
330
1F
100
AcDbEntity
  8
0
100
AcDbLine
 10
-19.49713973660601
 20
-177.7799659911183
 30
0.0
 11
-19.24713973660604
 21
-177.7799659911183
 31
0.0
  0
LINE
  5
16A3D
330
1F
100
AcDbEntity
  8
0
100
AcDbLine
 10
-13.46713973660729
 20
-177.7799659911183
 30
0.0
 11
-13.46713973660729
 21
-177.9359659911183
 31
0.0
  0
LINE
  5
16A3E
330
1F
100
AcDbEntity
  8
0
100
AcDbLine
 10
-13.46713973660729
 20
-177.9359659911183
 30
0.0
 11
-13.71713973660724
 21
-177.9359659911183
 31
0.0
  0
LINE
  5
16A3F
330
1F
100
AcDbEntity
  8
0
100
AcDbLine
 10
-13.71713973660724
 20
-177.9359659911183
 30
0.0
 11
-13.71713973660724
 21
-177.7799659911183
 31
0.0
  0
LINE
  5
16A40
330
1F
100
AcDbEntity
  8
0
100
AcDbLine
 10
-13.71713973660726
 20
-177.7799659911183
 30
0.0
 11
-13.46713973660729
 21
-177.7799659911183
 31
0.0
  0
LINE
  5
16A41
330
1F
100
AcDbEntity
  8
0
100
AcDbLine
 10
-14.71713973660704
 20
-177.7799659911183
 30
0.0
 11
-14.71713973660704
 21
-177.9359659911183
 31
0.0
  0
LINE
  5
16A42
330
1F
100
AcDbEntity
  8
0
100
AcDbLine
 10
-14.71713973660704
 20
-177.9359659911183
 30
0.0
 11
-14.96713973660699
 21
-177.9359659911183
 31
0.0
  0
LINE
  5
16A43
330
1F
100
AcDbEntity
  8
0
100
AcDbLine
 10
-14.96713973660699
 20
-177.9359659911183
 30
0.0
 11
-14.96713973660699
 21
-177.7799659911183
 31
0.0
  0
LINE
  5
16A44
330
1F
100
AcDbEntity
  8
0
100
AcDbLine
 10
-14.96713973660699
 20
-177.7799659911183
 30
0.0
 11
-14.71713973660704
 21
-177.7799659911183
 31
0.0
  0
LINE
  5
16A45
330
1F
100
AcDbEntity
  8
0
100
AcDbLine
 10
-20.4971397366058
 20
-177.7799659911183
 30
0.0
 11
-20.4971397366058
 21
-177.9359659911183
 31
0.0
  0
LINE
  5
16A46
330
1F
100
AcDbEntity
  8
0
100
AcDbLine
 10
-20.4971397366058
 20
-177.9359659911183
 30
0.0
 11
-20.74713973660573
 21
-177.9359659911183
 31
0.0
  0
LINE
  5
16A47
330
1F
100
AcDbEntity
  8
0
100
AcDbLine
 10
-20.74713973660573
 20
-177.9359659911183
 30
0.0
 11
-20.74713973660573
 21
-177.7799659911183
 31
0.0
  0
LINE
  5
16A48
330
1F
100
AcDbEntity
  8
0
100
AcDbLine
 10
-20.74713973660575
 20
-177.7799659911183
 30
0.0
 11
-20.4971397366058
 21
-177.7799659911183
 31
0.0
  0
LINE
  5
16A49
330
1F
100
AcDbEntity
  8
0
100
AcDbLine
 10
-10.98713973660784
 20
-177.7799659911183
 30
0.0
 11
-10.98713973660784
 21
-177.9359659911183
 31
0.0
  0
LINE
  5
16A4A
330
1F
100
AcDbEntity
  8
0
100
AcDbLine
 10
-10.98713973660784
 20
-177.9359659911183
 30
0.0
 11
-11.23713973660779
 21
-177.9359659911183
 31
0.0
  0
LINE
  5
16A4B
330
1F
100
AcDbEntity
  8
0
100
AcDbLine
 10
-11.23713973660779
 20
-177.9359659911183
 30
0.0
 11
-11.23713973660779
 21
-177.7799659911183
 31
0.0
  0
LINE
  5
16A4C
330
1F
100
AcDbEntity
  8
0
100
AcDbLine
 10
-11.23713973660776
 20
-177.7799659911183
 30
0.0
 11
-10.98713973660784
 21
-177.7799659911183
 31
0.0
  0
LINE
  5
16A4D
330
1F
100
AcDbEntity
  8
0
100
AcDbLine
 10
-20.94213973660933
 20
-161.8709659911165
 30
0.0
 11
-20.94213973660933
 21
-161.8669659911167
 31
0.0
  0
LINE
  5
16A4E
330
1F
100
AcDbEntity
  8
0
100
AcDbLine
 10
-21.57713973660931
 20
-178.2529659911184
 30
0.0
 11
-21.57713973660931
 21
-178.2528793769456
 31
0.0
  0
LINE
  5
16A4F
330
1F
100
AcDbEntity
  8
0
100
AcDbLine
 10
-21.57713973660931
 20
-161.8670526052903
 30
0.0
 11
-21.57713973660931
 21
-161.8669659911167
 31
0.0
  0
LINE
  5
16A50
330
1F
100
AcDbEntity
  8
0
100
AcDbLine
 10
-22.02867516967613
 20
-161.8669659911166
 30
0.0
 11
-22.41450194132966
 21
-161.8669659911166
 31
0.0
  0
LINE
  5
16A51
330
1F
100
AcDbEntity
  8
0
100
AcDbLine
 10
-22.02867516967582
 20
-178.2529659911184
 30
0.0
 11
-22.41450194132935
 21
-178.2529659911184
 31
0.0
  0
LINE
  5
16A52
330
1F
100
AcDbEntity
  8
0
100
AcDbLine
 10
-22.5621397366097
 20
-178.2529659911184
 30
0.0
 11
-22.5621397366097
 21
-178.2528793769456
 31
0.0
  0
LINE
  5
16A53
330
1F
100
AcDbEntity
  8
0
100
AcDbLine
 10
-22.99213973660982
 20
-178.2529659911183
 30
0.0
 11
-22.99213973660982
 21
-178.2528793769456
 31
0.0
  0
LINE
  5
16A54
330
1F
100
AcDbEntity
  8
0
100
AcDbLine
 10
-22.99213973660982
 20
-161.8670526052903
 30
0.0
 11
-22.99213973660982
 21
-161.8669659911166
 31
0.0
  0
LINE
  5
16A55
330
1F
100
AcDbEntity
  8
0
100
AcDbLine
 10
-23.39213973660986
 20
-161.8669659911166
 30
0.0
 11
-23.39087989408534
 21
-161.8669659911166
 31
0.0
  0
LINE
  5
16A56
330
1F
100
AcDbEntity
  8
0
100
AcDbLine
 10
-23.39213973660985
 20
-178.2529659911183
 30
0.0
 11
-23.39213973660985
 21
-178.2528793769456
 31
0.0
  0
LINE
  5
16A57
330
1F
100
AcDbEntity
  8
0
100
AcDbLine
 10
-23.39213973660986
 20
-161.8670526052903
 30
0.0
 11
-23.39213973660986
 21
-161.8669659911166
 31
0.0
  0
LINE
  5
16A58
330
1F
100
AcDbEntity
  8
0
100
AcDbLine
 10
-23.39213973660985
 20
-178.2529659911183
 30
0.0
 11
-23.39087989408503
 21
-178.2529659911183
 31
0.0
  0
LINE
  5
16A59
330
1F
100
AcDbEntity
  8
0
100
AcDbLine
 10
-21.74993784350609
 20
-178.2529659911184
 30
0.0
 11
-21.74993784350609
 21
-178.2528793769456
 31
0.0
  0
LINE
  5
16A5A
330
1F
100
AcDbEntity
  8
0
100
AcDbLine
 10
-21.7499378435061
 20
-161.8670526052903
 30
0.0
 11
-21.7499378435061
 21
-161.8669659911166
 31
0.0
  0
LINE
  5
16A5B
330
1F
100
AcDbEntity
  8
0
100
AcDbLine
 10
-21.77643387832141
 20
-178.2529659911184
 30
0.0
 11
-21.77643387832141
 21
-178.2528793769456
 31
0.0
  0
LINE
  5
16A5C
330
1F
100
AcDbEntity
  8
0
100
AcDbLine
 10
-21.77643387832141
 20
-161.8670526052903
 30
0.0
 11
-21.77643387832141
 21
-161.8669659911166
 31
0.0
  0
LINE
  5
16A5D
330
1F
100
AcDbEntity
  8
0
100
AcDbLine
 10
-23.29087989408525
 20
-178.2529659911185
 30
0.0
 11
-22.41450194132937
 21
-178.2529659911185
 31
0.0
  0
LINE
  5
16A5E
330
1F
100
AcDbEntity
  8
0
100
AcDbLine
 10
-23.00505312243171
 20
-178.5533671205203
 30
0.0
 11
-23.29087989408525
 21
-178.5533671205203
 31
0.0
  0
LINE
  5
16A5F
330
1F
100
AcDbEntity
  8
0
100
AcDbLine
 10
-23.00505312243172
 20
-178.4419423690713
 30
0.0
 11
-23.00505312243172
 21
-178.5533671205203
 31
0.0
  0
LINE
  5
16A60
330
1F
100
AcDbEntity
  8
0
100
AcDbLine
 10
-22.61922635077819
 20
-178.4419423690713
 30
0.0
 11
-23.00505312243172
 21
-178.4419423690713
 31
0.0
  0
LINE
  5
16A61
330
1F
100
AcDbEntity
  8
0
100
AcDbLine
 10
-22.61922635077818
 20
-178.5600526052918
 30
0.0
 11
-22.61922635077819
 21
-178.4419423690713
 31
0.0
  0
LINE
  5
16A62
330
1F
100
AcDbEntity
  8
0
100
AcDbLine
 10
-21.82395076022704
 20
-178.5600526052918
 30
0.0
 11
-22.61922635077818
 21
-178.5600526052918
 31
0.0
  0
LINE
  5
16A63
330
1F
100
AcDbEntity
  8
0
100
AcDbLine
 10
-21.82395076022701
 20
-178.4419423690713
 30
0.0
 11
-21.82395076022704
 21
-178.5600526052918
 31
0.0
  0
LINE
  5
16A64
330
1F
100
AcDbEntity
  8
0
100
AcDbLine
 10
-21.43812398857349
 20
-178.4419423690713
 30
0.0
 11
-21.82395076022704
 21
-178.4419423690713
 31
0.0
  0
LINE
  5
16A65
330
1F
100
AcDbEntity
  8
0
100
AcDbLine
 10
-21.43812398857349
 20
-178.5600526052918
 30
0.0
 11
-21.43812398857351
 21
-178.4419423690713
 31
0.0
  0
LINE
  5
16A66
330
1F
100
AcDbEntity
  8
0
100
AcDbLine
 10
-20.93812398857352
 20
-178.5600526052918
 30
0.0
 11
-21.43812398857349
 21
-178.5600526052918
 31
0.0
  0
LINE
  5
16A67
330
1F
100
AcDbEntity
  8
0
100
AcDbLine
 10
-20.93812398857351
 20
-178.2529659911185
 30
0.0
 11
-20.93812398857351
 21
-178.5600526052918
 31
0.0
  0
LINE
  5
16A68
330
1F
100
AcDbEntity
  8
0
100
AcDbLine
 10
-22.02867516967584
 20
-178.2529659911185
 30
0.0
 11
-20.93812398857351
 21
-178.2529659911185
 31
0.0
  0
LINE
  5
16A69
330
1F
100
AcDbEntity
  8
0
100
AcDbLine
 10
-22.02867516967584
 20
-178.4104463060792
 30
0.0
 11
-22.02867516967584
 21
-178.2529659911185
 31
0.0
  0
LINE
  5
16A6A
330
1F
100
AcDbEntity
  8
0
100
AcDbLine
 10
-22.41450194132937
 20
-178.4104463060792
 30
0.0
 11
-22.02867516967584
 21
-178.4104463060792
 31
0.0
  0
LINE
  5
16A6B
330
1F
100
AcDbEntity
  8
0
100
AcDbLine
 10
-22.41450194132937
 20
-178.2529659911185
 30
0.0
 11
-22.41450194132937
 21
-178.4104463060792
 31
0.0
  0
LINE
  5
16A6C
330
1F
100
AcDbEntity
  8
0
100
AcDbLine
 10
-23.29087989408501
 20
-178.2529659911185
 30
0.0
 11
-23.39087989408501
 21
-178.2529659911185
 31
0.0
  0
LINE
  5
16A6D
330
1F
100
AcDbEntity
  8
0
100
AcDbLine
 10
-23.39087989408501
 20
-178.2529659911185
 30
0.0
 11
-23.39087989408501
 21
-179.0600526052919
 31
0.0
  0
LINE
  5
16A6E
330
1F
100
AcDbEntity
  8
0
100
AcDbLine
 10
-23.39087989408501
 20
-179.0600526052919
 30
0.0
 11
-23.29087989408501
 21
-179.0600526052919
 31
0.0
  0
LINE
  5
16A6F
330
1F
100
AcDbEntity
  8
0
100
AcDbLine
 10
-23.29087989408501
 20
-179.0600526052919
 30
0.0
 11
-23.29087989408501
 21
-178.2529659911185
 31
0.0
  0
LINE
  5
16A70
330
1F
100
AcDbEntity
  8
0
100
AcDbLine
 10
-23.29087989408554
 20
-161.566564861715
 30
0.0
 11
-23.00505312243199
 21
-161.566564861715
 31
0.0
  0
LINE
  5
16A71
330
1F
100
AcDbEntity
  8
0
100
AcDbLine
 10
-22.41450194132961
 20
-161.8669659911168
 30
0.0
 11
-23.29087989408554
 21
-161.8669659911168
 31
0.0
  0
LINE
  5
16A72
330
1F
100
AcDbEntity
  8
0
100
AcDbLine
 10
-22.41450194132961
 20
-161.7094856761562
 30
0.0
 11
-22.41450194132962
 21
-161.8669659911168
 31
0.0
  0
LINE
  5
16A73
330
1F
100
AcDbEntity
  8
0
100
AcDbLine
 10
-22.02867516967607
 20
-161.7094856761562
 30
0.0
 11
-22.41450194132961
 21
-161.7094856761562
 31
0.0
  0
LINE
  5
16A74
330
1F
100
AcDbEntity
  8
0
100
AcDbLine
 10
-22.02867516967607
 20
-161.8669659911168
 30
0.0
 11
-22.02867516967607
 21
-161.7094856761562
 31
0.0
  0
LINE
  5
16A75
330
1F
100
AcDbEntity
  8
0
100
AcDbLine
 10
-20.93812398857369
 20
-161.8669659911168
 30
0.0
 11
-22.02867516967607
 21
-161.8669659911168
 31
0.0
  0
LINE
  5
16A76
330
1F
100
AcDbEntity
  8
0
100
AcDbLine
 10
-20.9381239885737
 20
-161.5598793769436
 30
0.0
 11
-20.9381239885737
 21
-161.8669659911168
 31
0.0
  0
LINE
  5
16A77
330
1F
100
AcDbEntity
  8
0
100
AcDbLine
 10
-21.43812398857369
 20
-161.5598793769436
 30
0.0
 11
-20.93812398857369
 21
-161.5598793769436
 31
0.0
  0
LINE
  5
16A78
330
1F
100
AcDbEntity
  8
0
100
AcDbLine
 10
-21.43812398857369
 20
-161.6779896131641
 30
0.0
 11
-21.43812398857369
 21
-161.5598793769436
 31
0.0
  0
LINE
  5
16A79
330
1F
100
AcDbEntity
  8
0
100
AcDbLine
 10
-21.82395076022725
 20
-161.6779896131641
 30
0.0
 11
-21.43812398857372
 21
-161.6779896131641
 31
0.0
  0
LINE
  5
16A7A
330
1F
100
AcDbEntity
  8
0
100
AcDbLine
 10
-21.82395076022725
 20
-161.5598793769436
 30
0.0
 11
-21.82395076022725
 21
-161.6779896131641
 31
0.0
  0
LINE
  5
16A7B
330
1F
100
AcDbEntity
  8
0
100
AcDbLine
 10
-22.61922635077844
 20
-161.5598793769436
 30
0.0
 11
-21.82395076022725
 21
-161.5598793769436
 31
0.0
  0
LINE
  5
16A7C
330
1F
100
AcDbEntity
  8
0
100
AcDbLine
 10
-22.61922635077844
 20
-161.6779896131641
 30
0.0
 11
-22.61922635077844
 21
-161.5598793769436
 31
0.0
  0
LINE
  5
16A7D
330
1F
100
AcDbEntity
  8
0
100
AcDbLine
 10
-23.00505312243199
 20
-161.6779896131641
 30
0.0
 11
-22.61922635077844
 21
-161.6779896131641
 31
0.0
  0
LINE
  5
16A7E
330
1F
100
AcDbEntity
  8
0
100
AcDbLine
 10
-23.00505312243199
 20
-161.566564861715
 30
0.0
 11
-23.00505312243199
 21
-161.677989613164
 31
0.0
  0
LINE
  5
16A7F
330
1F
100
AcDbEntity
  8
0
100
AcDbLine
 10
-23.29087989408531
 20
-161.8669659911168
 30
0.0
 11
-23.3908798940853
 21
-161.8669659911168
 31
0.0
  0
LINE
  5
16A80
330
1F
100
AcDbEntity
  8
0
100
AcDbLine
 10
-23.3908798940853
 20
-161.8669659911168
 30
0.0
 11
-23.3908798940853
 21
-161.0598793769436
 31
0.0
  0
LINE
  5
16A81
330
1F
100
AcDbEntity
  8
0
100
AcDbLine
 10
-23.3908798940853
 20
-161.0598793769436
 30
0.0
 11
-23.29087989408531
 21
-161.0598793769436
 31
0.0
  0
LINE
  5
16A82
330
1F
100
AcDbEntity
  8
0
100
AcDbLine
 10
-23.29087989408531
 20
-161.8669659911168
 30
0.0
 11
-23.29087989408531
 21
-161.0598793769436
 31
0.0
  0
ARC
  5
16A83
330
1F
100
AcDbEntity
  8
0
100
AcDbCircle
 10
-22.55906005509883
 20
-161.8928400068665
 30
0.0
 40
0.0393700787401571
100
AcDbArc
 50
40.91964995422721
 51
41.08667686915669
  0
ARC
  5
16A84
330
1F
100
AcDbEntity
  8
0
100
AcDbCircle
 10
-19.64924091060975
 20
-173.6889581171006
 30
0.0
 40
3.937007874017858
100
AcDbArc
 50
265.3425763894414
 51
268.2111470475234
  0
LINE
  5
16A85
330
1F
100
AcDbEntity
  8
0
100
AcDbLine
 10
-68.9114823633225
 20
-197.1728439565293
 30
0.0
 11
-68.9114823633225
 21
-197.1729089171591
 31
0.0
  0
LINE
  5
16A86
330
1F
100
AcDbEntity
  8
0
100
AcDbLine
 10
-69.03448236332249
 20
-197.1728439565293
 30
0.0
 11
-69.03448236332249
 21
-197.1729089171591
 31
0.0
  0
LINE
  5
16A87
330
1F
100
AcDbEntity
  8
0
100
AcDbLine
 10
-68.53648236332237
 20
-197.1728439565293
 30
0.0
 11
-68.53648236332237
 21
-197.1729089171591
 31
0.0
  0
LINE
  5
16A88
330
1F
100
AcDbEntity
  8
0
100
AcDbLine
 10
-68.65948236332235
 20
-197.1728439565293
 30
0.0
 11
-68.65948236332235
 21
-197.1729089171591
 31
0.0
  0
LINE
  5
16A89
330
1F
100
AcDbEntity
  8
0
100
AcDbLine
 10
-69.03448236332747
 20
-184.8834738777892
 30
0.0
 11
-69.03448236332747
 21
-184.8834089171577
 31
0.0
  0
LINE
  5
16A8A
330
1F
100
AcDbEntity
  8
0
100
AcDbLine
 10
-68.91148236332746
 20
-184.8834738777892
 30
0.0
 11
-68.91148236332746
 21
-184.8834089171577
 31
0.0
  0
LINE
  5
16A8B
330
1F
100
AcDbEntity
  8
0
100
AcDbLine
 10
-68.65948236332747
 20
-184.8834738777892
 30
0.0
 11
-68.65948236332747
 21
-184.8834089171577
 31
0.0
  0
LINE
  5
16A8C
330
1F
100
AcDbEntity
  8
0
100
AcDbLine
 10
-68.53648236332746
 20
-184.8834738777892
 30
0.0
 11
-68.53648236332746
 21
-184.8834089171577
 31
0.0
  0
LINE
  5
16A8D
330
1F
100
AcDbEntity
  8
0
100
AcDbLine
 10
-69.04302173340949
 20
-184.8834738777895
 30
0.0
 11
-68.99096461115255
 21
-184.8834738777895
 31
0.0
  0
LINE
  5
16A8E
330
1F
100
AcDbEntity
  8
0
100
AcDbLine
 10
-68.99096461115253
 20
-184.8834738777895
 30
0.0
 11
-68.98056521877141
 21
-184.8834738777895
 31
0.0
  0
LINE
  5
16A8F
330
1F
100
AcDbEntity
  8
0
100
AcDbLine
 10
-68.96966756567578
 20
-184.8834738777895
 30
0.0
 11
-68.98056521877141
 21
-184.8834738777895
 31
0.0
  0
LINE
  5
16A90
330
1F
100
AcDbEntity
  8
0
100
AcDbLine
 10
-68.96966756567578
 20
-184.8834738777895
 30
0.0
 11
-68.96907135207666
 21
-184.8834738777895
 31
0.0
  0
LINE
  5
16A91
330
1F
100
AcDbEntity
  8
0
100
AcDbLine
 10
-68.9156385961912
 20
-184.8834738777895
 30
0.0
 11
-68.96907135207666
 21
-184.8834738777895
 31
0.0
  0
LINE
  5
16A92
330
1F
100
AcDbEntity
  8
0
100
AcDbLine
 10
-68.9156385961912
 20
-184.8834738777895
 30
0.0
 11
-68.90579968242694
 21
-184.8834738777895
 31
0.0
  0
LINE
  5
16A93
330
1F
100
AcDbEntity
  8
0
100
AcDbLine
 10
-68.8738521760149
 20
-184.8834738777895
 30
0.0
 11
-68.90579968242694
 21
-184.8834738777895
 31
0.0
  0
LINE
  5
16A94
330
1F
100
AcDbEntity
  8
0
100
AcDbLine
 10
-68.8738521760149
 20
-184.8834738777895
 30
0.0
 11
-68.87209750933829
 21
-184.8834738777895
 31
0.0
  0
LINE
  5
16A95
330
1F
100
AcDbEntity
  8
0
100
AcDbLine
 10
-68.81652173340954
 20
-184.8834738777895
 30
0.0
 11
-68.87209750933829
 21
-184.8834738777895
 31
0.0
  0
LINE
  5
16A96
330
1F
100
AcDbEntity
  8
0
100
AcDbLine
 10
-68.81652173340954
 20
-184.8834738777895
 30
0.0
 11
-68.80527173340954
 21
-184.8834738777895
 31
0.0
  0
LINE
  5
16A97
330
1F
100
AcDbEntity
  8
0
100
AcDbLine
 10
-68.72350994996089
 20
-184.8834738777895
 30
0.0
 11
-68.80527173340954
 21
-184.8834738777895
 31
0.0
  0
LINE
  5
16A98
330
1F
100
AcDbEntity
  8
0
100
AcDbLine
 10
-68.71230275960735
 20
-184.8834738777895
 30
0.0
 11
-68.72350994996089
 21
-184.8834738777895
 31
0.0
  0
LINE
  5
16A99
330
1F
100
AcDbEntity
  8
0
100
AcDbLine
 10
-68.68976661556238
 20
-184.8834738777895
 30
0.0
 11
-68.71230275960735
 21
-184.8834738777895
 31
0.0
  0
LINE
  5
16A9A
330
1F
100
AcDbEntity
  8
0
100
AcDbLine
 10
-68.68976661556236
 20
-184.8834738777895
 30
0.0
 11
-68.65240931438394
 21
-184.8834738777895
 31
0.0
  0
LINE
  5
16A9B
330
1F
100
AcDbEntity
  8
0
100
AcDbLine
 10
-67.84677173340972
 20
-184.8834738777895
 30
0.0
 11
-68.65240931438394
 21
-184.8834738777895
 31
0.0
  0
LINE
  5
16A9C
330
1F
100
AcDbEntity
  8
0
100
AcDbLine
 10
-67.84677173340972
 20
-184.8834738777895
 30
0.0
 11
-67.83552173340972
 21
-184.8834738777895
 31
0.0
  0
LINE
  5
16A9D
330
1F
100
AcDbEntity
  8
0
100
AcDbLine
 10
-69.10864086496523
 20
-184.8834738777895
 30
0.0
 11
-69.53304573429019
 21
-184.8834738777895
 31
0.0
  0
LINE
  5
16A9E
330
1F
100
AcDbEntity
  8
0
100
AcDbLine
 10
-69.07302173340941
 20
-184.8834738777895
 30
0.0
 11
-69.10864086496523
 21
-184.8834738777895
 31
0.0
  0
LINE
  5
16A9F
330
1F
100
AcDbEntity
  8
0
100
AcDbLine
 10
-69.07302173340941
 20
-184.8834738777895
 30
0.0
 11
-69.06363234191942
 21
-184.8834738777895
 31
0.0
  0
LINE
  5
16AA0
330
1F
100
AcDbEntity
  8
0
100
AcDbLine
 10
-69.06363234191942
 20
-184.8834738777895
 30
0.0
 11
-69.04302173340949
 21
-184.8834738777895
 31
0.0
  0
LINE
  5
16AA1
330
1F
100
AcDbEntity
  8
0
100
AcDbLine
 10
-69.04302173340949
 20
-184.9048813581044
 30
0.0
 11
-69.04302173340949
 21
-184.8834738777895
 31
0.0
  0
LINE
  5
16AA2
330
1F
100
AcDbEntity
  8
0
100
AcDbLine
 10
-68.80527173340951
 20
-197.1728439565293
 30
0.0
 11
-68.8165217334095
 21
-197.1728439565293
 31
0.0
  0
LINE
  5
16AA3
330
1F
100
AcDbEntity
  8
0
100
AcDbLine
 10
-68.80527173340951
 20
-197.1728439565293
 30
0.0
 11
-68.72350994996086
 21
-197.1728439565293
 31
0.0
  0
LINE
  5
16AA4
330
1F
100
AcDbEntity
  8
0
100
AcDbLine
 10
-68.72350994996086
 20
-197.1728439565293
 30
0.0
 11
-68.71230275960733
 21
-197.1728439565293
 31
0.0
  0
LINE
  5
16AA5
330
1F
100
AcDbEntity
  8
0
100
AcDbLine
 10
-68.71230275960733
 20
-197.1728439565293
 30
0.0
 11
-68.68976661556235
 21
-197.1728439565293
 31
0.0
  0
LINE
  5
16AA6
330
1F
100
AcDbEntity
  8
0
100
AcDbLine
 10
-68.65240931438393
 20
-197.1728439565293
 30
0.0
 11
-68.68976661556235
 21
-197.1728439565293
 31
0.0
  0
LINE
  5
16AA7
330
1F
100
AcDbEntity
  8
0
100
AcDbLine
 10
-68.65240931438393
 20
-197.1728439565293
 30
0.0
 11
-67.8467717334097
 21
-197.1728439565293
 31
0.0
  0
LINE
  5
16AA8
330
1F
100
AcDbEntity
  8
0
100
AcDbLine
 10
-67.83552173340969
 20
-197.1728439565293
 30
0.0
 11
-67.8467717334097
 21
-197.1728439565293
 31
0.0
  0
LINE
  5
16AA9
330
1F
100
AcDbEntity
  8
0
100
AcDbLine
 10
-67.83552173340973
 20
-184.8834738777895
 30
0.0
 11
-67.83552173340971
 21
-197.1728439565293
 31
0.0
  0
LINE
  5
16AAA
330
1F
100
AcDbEntity
  8
0
100
AcDbLine
 10
-69.67302173340929
 20
-197.088631358104
 30
0.0
 11
-69.67302173340929
 21
-197.1728439565293
 31
0.0
  0
LINE
  5
16AAB
330
1F
100
AcDbEntity
  8
0
100
AcDbLine
 10
-69.6617717334093
 20
-197.1728439565293
 30
0.0
 11
-69.67302173340929
 21
-197.1728439565293
 31
0.0
  0
LINE
  5
16AAC
330
1F
100
AcDbEntity
  8
0
100
AcDbLine
 10
-69.6617717334093
 20
-197.1728439565293
 30
0.0
 11
-69.14802173340934
 21
-197.1728439565293
 31
0.0
  0
LINE
  5
16AAD
330
1F
100
AcDbEntity
  8
0
100
AcDbLine
 10
-68.96907135207666
 20
-184.8834738777895
 30
0.0
 11
-68.96907135207666
 21
-184.9048813581044
 31
0.0
  0
LINE
  5
16AAE
330
1F
100
AcDbEntity
  8
0
100
AcDbLine
 10
-68.87209750933829
 20
-184.8834738777895
 30
0.0
 11
-68.87209750933829
 21
-184.9048813581044
 31
0.0
  0
LINE
  5
16AAF
330
1F
100
AcDbEntity
  8
0
100
AcDbLine
 10
-68.81652173340954
 20
-184.8834738777895
 30
0.0
 11
-68.8165217334095
 21
-197.1728439565293
 31
0.0
  0
LINE
  5
16AB0
330
1F
100
AcDbEntity
  8
0
100
AcDbLine
 10
-69.07302173340941
 20
-184.8834738777895
 30
0.0
 11
-69.07302173340941
 21
-184.9048813581044
 31
0.0
  0
ARC
  5
16AB1
330
1F
100
AcDbEntity
  8
0
100
AcDbCircle
 10
-69.88015756018113
 20
-184.9285447439314
 30
0.0
 40
0.038385826771646
100
AcDbArc
 50
38.05819520242891
 51
90.0
  0
ARC
  5
16AB2
330
1F
100
AcDbEntity
  8
0
100
AcDbCircle
 10
-78.80338590663517
 20
-184.9285447439313
 30
0.0
 40
0.0383858267716469
100
AcDbArc
 50
89.99999999999023
 51
141.9418047977424
  0
LINE
  5
16AB3
330
1F
100
AcDbEntity
  8
0
100
AcDbLine
 10
-78.80338590663517
 20
-184.904881358104
 30
0.0
 11
-78.80338590663517
 21
-184.8901589171597
 31
0.0
  0
LINE
  5
16AB4
330
1F
100
AcDbEntity
  8
0
100
AcDbLine
 10
-69.88015756018114
 20
-184.8901589171597
 30
0.0
 11
-69.88015756018114
 21
-184.9048813581039
 31
0.0
  0
LINE
  5
16AB5
330
1F
100
AcDbEntity
  8
0
100
AcDbLine
 10
-69.88015756018114
 20
-184.8901589171597
 30
0.0
 11
-78.80338590663517
 21
-184.8901589171597
 31
0.0
  0
LINE
  5
16AB6
330
1F
100
AcDbEntity
  8
0
100
AcDbLine
 10
-71.52186031608491
 20
-184.8901589171605
 30
0.0
 11
-71.52186031608491
 21
-184.8864089171597
 31
0.0
  0
LINE
  5
16AB7
330
1F
100
AcDbEntity
  8
0
100
AcDbLine
 10
-77.16936031608321
 20
-184.8864089171597
 30
0.0
 11
-77.16936031608321
 21
-184.8901589171605
 31
0.0
  0
LINE
  5
16AB8
330
1F
100
AcDbEntity
  8
0
100
AcDbLine
 10
-77.52186031608309
 20
-184.8901589171605
 30
0.0
 11
-77.52186031608309
 21
-184.8864089171597
 31
0.0
  0
LINE
  5
16AB9
330
1F
100
AcDbEntity
  8
0
100
AcDbLine
 10
-71.169360316085
 20
-184.8864089171597
 30
0.0
 11
-71.169360316085
 21
-184.8901589171605
 31
0.0
  0
LINE
  5
16ABA
330
1F
100
AcDbEntity
  8
0
100
AcDbLine
 10
-71.52186031608491
 20
-184.8864089171597
 30
0.0
 11
-77.16936031608321
 21
-184.8864089171597
 31
0.0
  0
LINE
  5
16ABB
330
1F
100
AcDbEntity
  8
0
100
AcDbLine
 10
-77.52186031608309
 20
-184.8864089171597
 30
0.0
 11
-78.84561031608085
 21
-184.8864089171596
 31
0.0
  0
LINE
  5
16ABC
330
1F
100
AcDbEntity
  8
0
100
AcDbLine
 10
-69.84177173340831
 20
-184.8864089171597
 30
0.0
 11
-71.169360316085
 21
-184.8864089171597
 31
0.0
  0
LINE
  5
16ABD
330
1F
100
AcDbEntity
  8
0
100
AcDbLine
 10
-69.84177173340921
 20
-197.1729089171589
 30
0.0
 11
-69.84177173340921
 21
-197.0886313581041
 31
0.0
  0
LINE
  5
16ABE
330
1F
100
AcDbEntity
  8
0
100
AcDbLine
 10
-69.84177173340921
 20
-192.2052573423563
 30
0.0
 11
-69.84177173340921
 21
-192.1566313581043
 31
0.0
  0
LINE
  5
16ABF
330
1F
100
AcDbEntity
  8
0
100
AcDbLine
 10
-69.84177173340921
 20
-184.9048813581047
 30
0.0
 11
-69.84177173340921
 21
-184.8864089171597
 31
0.0
  0
LINE
  5
16AC0
330
1F
100
AcDbEntity
  8
0
100
AcDbLine
 10
-69.84177173340921
 20
-184.8864089171597
 30
0.0
 11
-69.8173544137195
 21
-184.8864089171597
 31
0.0
  0
LINE
  5
16AC1
330
1F
100
AcDbEntity
  8
0
100
AcDbLine
 10
-69.78823653699876
 20
-184.8864089171597
 30
0.0
 11
-69.8173544137195
 21
-184.8864089171597
 31
0.0
  0
LINE
  5
16AC2
330
1F
100
AcDbEntity
  8
0
100
AcDbLine
 10
-69.67302173340929
 20
-197.1729089171589
 30
0.0
 11
-69.67302173340929
 21
-197.1728439565294
 31
0.0
  0
LINE
  5
16AC3
330
1F
100
AcDbEntity
  8
0
100
AcDbLine
 10
-69.70668315073211
 20
-197.1729089171589
 30
0.0
 11
-69.70668315073211
 21
-197.0886313581041
 31
0.0
  0
LINE
  5
16AC4
330
1F
100
AcDbEntity
  8
0
100
AcDbLine
 10
-78.8456103160836
 20
-197.172908917159
 30
0.0
 11
-78.8456103160836
 21
-197.0886313581041
 31
0.0
  0
LINE
  5
16AC5
330
1F
100
AcDbEntity
  8
0
100
AcDbLine
 10
-78.8456103160836
 20
-184.9048813581027
 30
0.0
 11
-78.8456103160836
 21
-184.8834089171577
 31
0.0
  0
LINE
  5
16AC6
330
1F
100
AcDbEntity
  8
0
100
AcDbLine
 10
-79.80561031608354
 20
-197.172908917159
 30
0.0
 11
-79.80561031608354
 21
-197.0790939565293
 31
0.0
  0
LINE
  5
16AC7
330
1F
100
AcDbEntity
  8
0
100
AcDbLine
 10
-79.80561031608354
 20
-184.9048813581028
 30
0.0
 11
-79.80561031608354
 21
-184.8834089171576
 31
0.0
  0
LINE
  5
16AC8
330
1F
100
AcDbEntity
  8
0
100
AcDbLine
 10
-79.88061031608355
 20
-197.172908917159
 30
0.0
 11
-79.88061031608355
 21
-197.0790939565293
 31
0.0
  0
LINE
  5
16AC9
330
1F
100
AcDbEntity
  8
0
100
AcDbLine
 10
-79.88061031608355
 20
-184.9048813581028
 30
0.0
 11
-79.88061031608355
 21
-184.8834089171576
 31
0.0
  0
LINE
  5
16ACA
330
1F
100
AcDbEntity
  8
0
100
AcDbLine
 10
-80.06811031608354
 20
-197.172908917159
 30
0.0
 11
-80.06811031608354
 21
-197.0790939565293
 31
0.0
  0
LINE
  5
16ACB
330
1F
100
AcDbEntity
  8
0
100
AcDbLine
 10
-80.06811031608354
 20
-184.9048813581028
 30
0.0
 11
-80.06811031608354
 21
-184.8834089171576
 31
0.0
  0
LINE
  5
16ACC
330
1F
100
AcDbEntity
  8
0
100
AcDbLine
 10
-80.21811031608352
 20
-197.172908917159
 30
0.0
 11
-80.21811031608352
 21
-184.8834089171576
 31
0.0
  0
LINE
  5
16ACD
330
1F
100
AcDbEntity
  8
0
100
AcDbLine
 10
-80.23850125856691
 20
-184.8834089171576
 30
0.0
 11
-80.23236601099668
 21
-184.8834089171576
 31
0.0
  0
LINE
  5
16ACE
330
1F
100
AcDbEntity
  8
0
100
AcDbLine
 10
-80.23850125856691
 20
-197.172908917159
 30
0.0
 11
-80.23236601099597
 21
-197.172908917159
 31
0.0
  0
LINE
  5
16ACF
330
1F
100
AcDbEntity
  8
0
100
AcDbLine
 10
-80.23850125856691
 20
-184.8834089171576
 30
0.0
 11
-80.97186031608348
 21
-184.8834089171576
 31
0.0
  0
LINE
  5
16AD0
330
1F
100
AcDbEntity
  8
0
100
AcDbLine
 10
-80.23850125856691
 20
-197.172908917159
 30
0.0
 11
-80.97186031608348
 21
-197.172908917159
 31
0.0
  0
LINE
  5
16AD1
330
1F
100
AcDbEntity
  8
0
100
AcDbLine
 10
-80.97637330187266
 20
-184.8834089171576
 30
0.0
 11
-80.97186031608348
 21
-184.8834089171576
 31
0.0
  0
LINE
  5
16AD2
330
1F
100
AcDbEntity
  8
0
100
AcDbLine
 10
-80.98311031608346
 20
-197.172908917159
 30
0.0
 11
-80.98311031608346
 21
-184.8834089171576
 31
0.0
  0
LINE
  5
16AD3
330
1F
100
AcDbEntity
  8
0
100
AcDbLine
 10
-80.97637330187316
 20
-197.172908917159
 30
0.0
 11
-80.97186031608348
 21
-197.172908917159
 31
0.0
  0
LINE
  5
16AD4
330
1F
100
AcDbEntity
  8
0
100
AcDbLine
 10
-67.83636622159512
 20
-197.1729089171591
 30
0.0
 11
-80.23236601099617
 21
-197.172908917159
 31
0.0
  0
LINE
  5
16AD5
330
1F
100
AcDbEntity
  8
0
100
AcDbLine
 10
-80.97637330187339
 20
-197.172908917159
 30
0.0
 11
-80.98386622159535
 21
-197.172908917159
 31
0.0
  0
LINE
  5
16AD6
330
1F
100
AcDbEntity
  8
0
100
AcDbLine
 10
-80.98386622159535
 20
-197.172908917159
 30
0.0
 11
-80.98386622159535
 21
-197.778223877789
 31
0.0
  0
LINE
  5
16AD7
330
1F
100
AcDbEntity
  8
0
100
AcDbLine
 10
-67.83636622159512
 20
-197.7782238777891
 30
0.0
 11
-80.98386622159535
 21
-197.778223877789
 31
0.0
  0
LINE
  5
16AD8
330
1F
100
AcDbEntity
  8
0
100
AcDbLine
 10
-67.83636622159512
 20
-197.1729089171591
 30
0.0
 11
-67.83636622159512
 21
-197.7782238777891
 31
0.0
  0
LINE
  5
16AD9
330
1F
100
AcDbEntity
  8
0
100
AcDbLine
 10
-80.98347645781581
 20
-184.8834089171576
 30
0.0
 11
-80.97637330187254
 21
-184.8834089171576
 31
0.0
  0
LINE
  5
16ADA
330
1F
100
AcDbEntity
  8
0
100
AcDbLine
 10
-80.23236601099654
 20
-184.8834089171576
 30
0.0
 11
-67.83597645781572
 21
-184.8834089171577
 31
0.0
  0
LINE
  5
16ADB
330
1F
100
AcDbEntity
  8
0
100
AcDbLine
 10
-67.83597645781573
 20
-184.8834089171577
 30
0.0
 11
-67.83597645781572
 21
-184.2780939565279
 31
0.0
  0
LINE
  5
16ADC
330
1F
100
AcDbEntity
  8
0
100
AcDbLine
 10
-80.98347645781581
 20
-184.2780939565278
 30
0.0
 11
-67.83597645781572
 21
-184.2780939565279
 31
0.0
  0
LINE
  5
16ADD
330
1F
100
AcDbEntity
  8
0
100
AcDbLine
 10
-80.98347645781581
 20
-184.8834089171576
 30
0.0
 11
-80.98347645781581
 21
-184.2780939565278
 31
0.0
  0
LINE
  5
16ADE
330
1F
100
AcDbEntity
  8
0
100
AcDbLine
 10
-69.54402173340951
 20
-192.1566313581039
 30
0.0
 11
-69.54402173340951
 21
-192.1568439565292
 31
0.0
  0
LINE
  5
16ADF
330
1F
100
AcDbEntity
  8
0
100
AcDbLine
 10
-69.54402173340951
 20
-192.1568439565292
 30
0.0
 11
-69.58902468616542
 21
-192.1568439565292
 31
0.0
  0
LINE
  5
16AE0
330
1F
100
AcDbEntity
  8
0
100
AcDbLine
 10
-69.18027173340958
 20
-184.9048813581039
 30
0.0
 11
-69.44652173340957
 21
-184.9048813581039
 31
0.0
  0
LINE
  5
16AE1
330
1F
100
AcDbEntity
  8
0
100
AcDbLine
 10
-69.18027173340949
 20
-197.0790939565293
 30
0.0
 11
-69.44652173340945
 21
-197.0790939565293
 31
0.0
  0
LINE
  5
16AE2
330
1F
100
AcDbEntity
  8
0
100
AcDbLine
 10
-69.18027173340949
 20
-197.0790939565293
 30
0.0
 11
-69.18027173340958
 21
-184.9048813581039
 31
0.0
  0
LINE
  5
16AE3
330
1F
100
AcDbEntity
  8
0
100
AcDbLine
 10
-69.45777173340957
 20
-184.9048813581039
 30
0.0
 11
-69.44652173340957
 21
-184.9048813581039
 31
0.0
  0
LINE
  5
16AE4
330
1F
100
AcDbEntity
  8
0
100
AcDbLine
 10
-69.45777173340947
 20
-196.8147573423561
 30
0.0
 11
-69.45777173340957
 21
-185.1861313581038
 31
0.0
  0
LINE
  5
16AE5
330
1F
100
AcDbEntity
  8
0
100
AcDbLine
 10
-69.45777173340946
 20
-197.0790939565293
 30
0.0
 11
-69.44652173340945
 21
-197.0790939565293
 31
0.0
  0
LINE
  5
16AE6
330
1F
100
AcDbEntity
  8
0
100
AcDbLine
 10
-69.09981423950849
 20
-184.9048813581039
 30
0.0
 11
-68.81652173340974
 21
-184.9048813581039
 31
0.0
  0
LINE
  5
16AE7
330
1F
100
AcDbEntity
  8
0
100
AcDbLine
 10
-69.09981423950849
 20
-184.9048813581039
 30
0.0
 11
-69.1748768768758
 21
-184.9048813581039
 31
0.0
  0
LINE
  5
16AE8
330
1F
100
AcDbEntity
  8
0
100
AcDbLine
 10
-69.1225608088485
 20
-197.0790939565293
 30
0.0
 11
-69.1748768768757
 21
-197.0790939565293
 31
0.0
  0
LINE
  5
16AE9
330
1F
100
AcDbEntity
  8
0
100
AcDbLine
 10
-69.1748768768758
 20
-184.9048813581039
 30
0.0
 11
-69.18027173340958
 21
-184.9048813581039
 31
0.0
  0
LINE
  5
16AEA
330
1F
100
AcDbEntity
  8
0
100
AcDbLine
 10
-69.1748768768757
 20
-197.0790939565293
 30
0.0
 11
-69.18027173340949
 21
-197.0790939565293
 31
0.0
  0
LINE
  5
16AEB
330
1F
100
AcDbEntity
  8
0
100
AcDbLine
 10
-78.8778012609682
 20
-185.186131358104
 30
0.0
 11
-78.8778012609682
 21
-185.237007342356
 31
0.0
  0
LINE
  5
16AEC
330
1F
100
AcDbEntity
  8
0
100
AcDbLine
 10
-79.1215512609682
 20
-185.182647106135
 30
0.0
 11
-79.1215512609682
 21
-185.1748813581039
 31
0.0
  0
LINE
  5
16AED
330
1F
100
AcDbEntity
  8
0
100
AcDbLine
 10
-79.1215512609682
 20
-184.9161313581039
 30
0.0
 11
-79.12155126096819
 21
-185.1748813581039
 31
0.0
  0
LINE
  5
16AEE
330
1F
100
AcDbEntity
  8
0
100
AcDbLine
 10
-79.1215512609682
 20
-184.9161313581039
 30
0.0
 11
-79.1215512609682
 21
-184.9083656100729
 31
0.0
  0
LINE
  5
16AEF
330
1F
100
AcDbEntity
  8
0
100
AcDbLine
 10
-69.45777173340957
 20
-184.9048813581039
 30
0.0
 11
-79.11806700899925
 21
-184.904881358104
 31
0.0
  0
LINE
  5
16AF0
330
1F
100
AcDbEntity
  8
0
100
AcDbLine
 10
-69.45777173340957
 20
-184.9048813581039
 30
0.0
 11
-69.45777173340957
 21
-184.9161313581039
 31
0.0
  0
LINE
  5
16AF1
330
1F
100
AcDbEntity
  8
0
100
AcDbLine
 10
-69.45777173340957
 20
-185.1748813581039
 30
0.0
 11
-69.45777173340957
 21
-184.9161313581039
 31
0.0
  0
LINE
  5
16AF2
330
1F
100
AcDbEntity
  8
0
100
AcDbLine
 10
-69.45777173340957
 20
-185.1748813581039
 30
0.0
 11
-69.45777173340957
 21
-185.1861313581039
 31
0.0
  0
LINE
  5
16AF3
330
1F
100
AcDbEntity
  8
0
100
AcDbLine
 10
-69.45777173340957
 20
-185.1861313581039
 30
0.0
 11
-79.11806700899925
 21
-185.186131358104
 31
0.0
  0
LINE
  5
16AF4
330
1F
100
AcDbEntity
  8
0
100
AcDbLine
 10
-79.12931700899969
 20
-184.904881358104
 30
0.0
 11
-79.11806700899969
 21
-184.904881358104
 31
0.0
  0
LINE
  5
16AF5
330
1F
100
AcDbEntity
  8
0
100
AcDbLine
 10
-79.12931700899959
 20
-197.0790939565293
 30
0.0
 11
-79.12155126096848
 21
-197.0790939565293
 31
0.0
  0
LINE
  5
16AF6
330
1F
100
AcDbEntity
  8
0
100
AcDbLine
 10
-79.11806700899958
 20
-196.8147573423561
 30
0.0
 11
-79.11806700899969
 21
-185.1861313581039
 31
0.0
  0
LINE
  5
16AF7
330
1F
100
AcDbEntity
  8
0
100
AcDbLine
 10
-79.12931700899969
 20
-184.904881358104
 30
0.0
 11
-79.37591213942051
 21
-184.904881358104
 31
0.0
  0
LINE
  5
16AF8
330
1F
100
AcDbEntity
  8
0
100
AcDbLine
 10
-79.12931700899959
 20
-197.0790939565293
 30
0.0
 11
-79.37591213942039
 21
-197.0790939565293
 31
0.0
  0
LINE
  5
16AF9
330
1F
100
AcDbEntity
  8
0
100
AcDbLine
 10
-79.37591213942049
 20
-184.904881358104
 30
0.0
 11
-79.65198957421008
 21
-184.904881358104
 31
0.0
  0
LINE
  5
16AFA
330
1F
100
AcDbEntity
  8
0
100
AcDbLine
 10
-79.37591213942039
 20
-197.0790939565293
 30
0.0
 11
-79.65198957420998
 21
-197.0790939565293
 31
0.0
  0
LINE
  5
16AFB
330
1F
100
AcDbEntity
  8
0
100
AcDbLine
 10
-79.90776391659998
 20
-184.904881358104
 30
0.0
 11
-79.65198957421008
 21
-184.904881358104
 31
0.0
  0
LINE
  5
16AFC
330
1F
100
AcDbEntity
  8
0
100
AcDbLine
 10
-79.90776391659986
 20
-197.0790939565293
 30
0.0
 11
-79.65198957420998
 21
-197.0790939565293
 31
0.0
  0
LINE
  5
16AFD
330
1F
100
AcDbEntity
  8
0
100
AcDbLine
 10
-80.1748367792557
 20
-184.904881358104
 30
0.0
 11
-79.90776391659998
 21
-184.904881358104
 31
0.0
  0
LINE
  5
16AFE
330
1F
100
AcDbEntity
  8
0
100
AcDbLine
 10
-80.17483677925559
 20
-197.0790939565293
 30
0.0
 11
-79.90776391659986
 21
-197.0790939565293
 31
0.0
  0
LINE
  5
16AFF
330
1F
100
AcDbEntity
  8
0
100
AcDbLine
 10
-80.18456700899966
 20
-184.904881358104
 30
0.0
 11
-80.1748367792557
 21
-184.904881358104
 31
0.0
  0
LINE
  5
16B00
330
1F
100
AcDbEntity
  8
0
100
AcDbLine
 10
-80.18456700899955
 20
-197.0790939565293
 30
0.0
 11
-80.17483677925559
 21
-197.0790939565293
 31
0.0
  0
LINE
  5
16B01
330
1F
100
AcDbEntity
  8
0
100
AcDbLine
 10
-78.89306700899969
 20
-185.2370073423559
 30
0.0
 11
-78.89306700899969
 21
-185.1861313581039
 31
0.0
  0
LINE
  5
16B02
330
1F
100
AcDbEntity
  8
0
100
AcDbLine
 10
-80.18456700899955
 20
-197.0790939565293
 30
0.0
 11
-80.18456700899966
 21
-184.904881358104
 31
0.0
  0
LINE
  5
16B03
330
1F
100
AcDbEntity
  8
0
100
AcDbLine
 10
-79.12155126096807
 20
-197.0886313581041
 30
0.0
 11
-79.12155126096807
 21
-197.0773813581041
 31
0.0
  0
LINE
  5
16B04
330
1F
100
AcDbEntity
  8
0
100
AcDbLine
 10
-79.12155126096809
 20
-196.826007342356
 30
0.0
 11
-79.12155126096807
 21
-197.0773813581041
 31
0.0
  0
LINE
  5
16B05
330
1F
100
AcDbEntity
  8
0
100
AcDbLine
 10
-79.12155126096809
 20
-196.826007342356
 30
0.0
 11
-79.12155126096809
 21
-196.8182415943249
 31
0.0
  0
LINE
  5
16B06
330
1F
100
AcDbEntity
  8
0
100
AcDbLine
 10
-69.45777173340947
 20
-196.814757342356
 30
0.0
 11
-79.1180670089992
 21
-196.8147573423561
 31
0.0
  0
LINE
  5
16B07
330
1F
100
AcDbEntity
  8
0
100
AcDbLine
 10
-69.45777173340947
 20
-196.814757342356
 30
0.0
 11
-69.45777173340947
 21
-196.826007342356
 31
0.0
  0
LINE
  5
16B08
330
1F
100
AcDbEntity
  8
0
100
AcDbLine
 10
-69.45777173340946
 20
-197.0773813581041
 30
0.0
 11
-69.45777173340947
 21
-196.826007342356
 31
0.0
  0
LINE
  5
16B09
330
1F
100
AcDbEntity
  8
0
100
AcDbLine
 10
-69.45777173340946
 20
-197.0886313581041
 30
0.0
 11
-79.12155126096807
 21
-197.0886313581041
 31
0.0
  0
LINE
  5
16B0A
330
1F
100
AcDbEntity
  8
0
100
AcDbLine
 10
-69.45777173340946
 20
-197.0773813581041
 30
0.0
 11
-69.45777173340946
 21
-197.0886313581041
 31
0.0
  0
LINE
  5
16B0B
330
1F
100
AcDbEntity
  8
0
100
AcDbLine
 10
-79.30677763892084
 20
-197.0827849014112
 30
0.0
 11
-79.30677763892084
 21
-197.0790939565293
 31
0.0
  0
LINE
  5
16B0C
330
1F
100
AcDbEntity
  8
0
100
AcDbLine
 10
-79.24181700899959
 20
-197.0790939565293
 30
0.0
 11
-79.24181700899959
 21
-197.0827849014112
 31
0.0
  0
LINE
  5
16B0D
330
1F
100
AcDbEntity
  8
0
100
AcDbLine
 10
-79.30677763892084
 20
-197.0827849014112
 30
0.0
 11
-79.24181700899959
 21
-197.0827849014112
 31
0.0
  0
LINE
  5
16B0E
330
1F
100
AcDbEntity
  8
0
100
AcDbLine
 10
-69.45777173340951
 20
-189.912536869915
 30
0.0
 11
-69.58038784577758
 21
-189.912536869915
 31
0.0
  0
LINE
  5
16B0F
330
1F
100
AcDbEntity
  8
0
100
AcDbLine
 10
-69.58038784577755
 20
-192.156631358104
 30
0.0
 11
-69.58038784577758
 21
-189.912536869915
 31
0.0
  0
LINE
  5
16B10
330
1F
100
AcDbEntity
  8
0
100
AcDbLine
 10
-69.45777173340951
 20
-192.156631358104
 30
0.0
 11
-69.58038784577755
 21
-192.156631358104
 31
0.0
  0
LINE
  5
16B11
330
1F
100
AcDbEntity
  8
0
100
AcDbLine
 10
-69.84172367763125
 20
-189.912536869915
 30
0.0
 11
-69.58038784577758
 21
-189.912536869915
 31
0.0
  0
LINE
  5
16B12
330
1F
100
AcDbEntity
  8
0
100
AcDbLine
 10
-69.85078534277835
 20
-192.156631358104
 30
0.0
 11
-69.58038784577755
 21
-192.156631358104
 31
0.0
  0
LINE
  5
16B13
330
1F
100
AcDbEntity
  8
0
100
AcDbLine
 10
-69.85078534277835
 20
-192.156631358104
 30
0.0
 11
-69.86427173340942
 21
-192.156631358104
 31
0.0
  0
LINE
  5
16B14
330
1F
100
AcDbEntity
  8
0
100
AcDbLine
 10
-69.85078534277835
 20
-192.156631358104
 30
0.0
 11
-69.85078534277836
 21
-189.9316352951119
 31
0.0
  0
LINE
  5
16B15
330
1F
100
AcDbEntity
  8
0
100
AcDbLine
 10
-75.25087803262187
 20
-187.7692730903875
 30
0.0
 11
-75.25087803262188
 21
-186.8007691533795
 31
0.0
  0
ARC
  5
16B16
330
1F
100
AcDbEntity
  8
0
100
AcDbCircle
 10
-75.15638984364549
 20
-187.7692730903875
 30
0.0
 40
0.0944881889763782
100
AcDbArc
 50
180.0
 51
270.0
  0
LINE
  5
16B17
330
1F
100
AcDbEntity
  8
0
100
AcDbLine
 10
-74.00186228459043
 20
-187.8637612793638
 30
0.0
 11
-75.15638984364549
 21
-187.8637612793638
 31
0.0
  0
ARC
  5
16B18
330
1F
100
AcDbEntity
  8
0
100
AcDbCircle
 10
-74.00186228459043
 20
-187.7692730903875
 30
0.0
 40
0.0944881889763791
100
AcDbArc
 50
270.0000000000017
 51
0.0
  0
LINE
  5
16B19
330
1F
100
AcDbEntity
  8
0
100
AcDbLine
 10
-73.90737409561407
 20
-186.8007691533795
 30
0.0
 11
-73.90737409561406
 21
-187.7692730903875
 31
0.0
  0
ARC
  5
16B1A
330
1F
100
AcDbEntity
  8
0
100
AcDbCircle
 10
-74.00186228459043
 20
-186.8007691533795
 30
0.0
 40
0.094488188976377
100
AcDbArc
 50
0.0
 51
90.0
  0
LINE
  5
16B1B
330
1F
100
AcDbEntity
  8
0
100
AcDbLine
 10
-75.15638984364551
 20
-186.7062809644032
 30
0.0
 11
-74.00186228459045
 21
-186.7062809644032
 31
0.0
  0
ARC
  5
16B1C
330
1F
100
AcDbEntity
  8
0
100
AcDbCircle
 10
-75.15638984364551
 20
-186.8007691533795
 30
0.0
 40
0.0944881889763782
100
AcDbArc
 50
90.00000000000161
 51
180.0
  0
CIRCLE
  5
16B1D
330
1F
100
AcDbEntity
  8
0
100
AcDbCircle
 10
-76.06594496175569
 20
-189.682257342356
 30
0.0
 40
0.3071250000000037
  0
LINE
  5
16B1E
330
1F
100
AcDbEntity
  8
0
100
AcDbLine
 10
-70.03392500863558
 20
-185.2370073423559
 30
0.0
 11
-78.83127173340914
 21
-185.2370073423559
 31
0.0
  0
LINE
  5
16B1F
330
1F
100
AcDbEntity
  8
0
100
AcDbLine
 10
-69.7919842815105
 20
-185.2370073423559
 30
0.0
 11
-69.49527173340953
 21
-185.2370073423559
 31
0.0
  0
LINE
  5
16B20
330
1F
100
AcDbEntity
  8
0
100
AcDbLine
 10
-69.7919842815105
 20
-185.2370073423559
 30
0.0
 11
-70.03392500863558
 21
-185.2370073423559
 31
0.0
  0
LINE
  5
16B21
330
1F
100
AcDbEntity
  8
0
100
AcDbLine
 10
-78.83127173340913
 20
-185.2370073423559
 30
0.0
 11
-78.99701048456623
 21
-185.2370073423559
 31
0.0
  0
LINE
  5
16B22
330
1F
100
AcDbEntity
  8
0
100
AcDbLine
 10
-79.10127173340912
 20
-185.2370073423559
 30
0.0
 11
-78.99701048456623
 21
-185.2370073423559
 31
0.0
  0
LINE
  5
16B23
330
1F
100
AcDbEntity
  8
0
100
AcDbLine
 10
-79.10127173340903
 20
-196.8147573423561
 30
0.0
 11
-79.10127173340912
 21
-185.2370073423559
 31
0.0
  0
LINE
  5
16B24
330
1F
100
AcDbEntity
  8
0
100
AcDbLine
 10
-69.49527173340945
 20
-196.814757342356
 30
0.0
 11
-69.49527173340948
 21
-192.205257342356
 31
0.0
  0
LINE
  5
16B25
330
1F
100
AcDbEntity
  8
0
100
AcDbLine
 10
-69.49527173340951
 20
-189.912536869915
 30
0.0
 11
-69.49527173340953
 21
-185.2370073423559
 31
0.0
  0
LINE
  5
16B26
330
1F
100
AcDbEntity
  8
0
100
AcDbLine
 10
-69.86427173340951
 20
-189.9316352951118
 30
0.0
 11
-69.84172367763128
 21
-189.9316352951118
 31
0.0
  0
LINE
  5
16B27
330
1F
100
AcDbEntity
  8
0
100
AcDbLine
 10
-69.86427173340948
 20
-192.205257342356
 30
0.0
 11
-69.86427173340951
 21
-189.9316352951118
 31
0.0
  0
LINE
  5
16B28
330
1F
100
AcDbEntity
  8
0
100
AcDbLine
 10
-69.79198428151045
 20
-192.205257342356
 30
0.0
 11
-69.86427173340948
 21
-192.205257342356
 31
0.0
  0
LINE
  5
16B29
330
1F
100
AcDbEntity
  8
0
100
AcDbLine
 10
-69.79198428151045
 20
-192.205257342356
 30
0.0
 11
-69.49527173340948
 21
-192.205257342356
 31
0.0
  0
CIRCLE
  5
16B2A
330
1F
100
AcDbEntity
  8
0
100
AcDbCircle
 10
-74.04252173340934
 20
-185.6210073423559
 30
0.0
 40
0.1012500000000009
  0
CIRCLE
  5
16B2B
330
1F
100
AcDbEntity
  8
0
100
AcDbCircle
 10
-78.42477173340907
 20
-194.7702573423561
 30
0.0
 40
0.3631889763779567
  0
LINE
  5
16B2C
330
1F
100
AcDbEntity
  8
0
100
AcDbLine
 10
-78.20382759795119
 20
-187.3968242366112
 30
0.0
 11
-78.2040820342717
 21
-187.4086325193466
 31
0.0
  0
LINE
  5
16B2D
330
1F
100
AcDbEntity
  8
0
100
AcDbLine
 10
-78.20795027932845
 20
-187.4085491692049
 30
0.0
 11
-78.20408203427172
 21
-187.4086325193466
 31
0.0
  0
LINE
  5
16B2E
330
1F
100
AcDbEntity
  8
0
100
AcDbLine
 10
-78.20265082996875
 20
-187.3422109289599
 30
0.0
 11
-78.20290526628927
 21
-187.3540192116953
 31
0.0
  0
LINE
  5
16B2F
330
1F
100
AcDbEntity
  8
0
100
AcDbLine
 10
-78.20265082996875
 20
-187.3422109289599
 30
0.0
 11
-78.20651907502548
 21
-187.3421275788182
 31
0.0
  0
LINE
  5
16B30
330
1F
100
AcDbEntity
  8
0
100
AcDbLine
 10
-78.20290526628927
 20
-187.3540192116953
 30
0.0
 11
-78.20382759795119
 21
-187.3968242366112
 31
0.0
  0
LINE
  5
16B31
330
1F
100
AcDbEntity
  8
0
100
AcDbLine
 10
-78.45751708539626
 20
-187.2223939589009
 30
0.0
 11
-78.38666263665825
 21
-187.2236812576442
 31
0.0
  0
LINE
  5
16B32
330
1F
100
AcDbEntity
  8
0
100
AcDbLine
 10
-78.38666263665825
 20
-187.2236812576442
 30
0.0
 11
-78.39202638142203
 21
-187.5189081273858
 31
0.0
  0
LINE
  5
16B33
330
1F
100
AcDbEntity
  8
0
100
AcDbLine
 10
-78.39202638142203
 20
-187.5189081273858
 30
0.0
 11
-78.46288083016002
 21
-187.5176208286425
 31
0.0
  0
LINE
  5
16B34
330
1F
100
AcDbEntity
  8
0
100
AcDbLine
 10
-78.46288083016002
 20
-187.5176208286425
 30
0.0
 11
-78.45751708539626
 21
-187.2223939589009
 31
0.0
  0
CIRCLE
  5
16B35
330
1F
100
AcDbEntity
  8
0
100
AcDbCircle
 10
-78.42477173340914
 20
-187.3706510431434
 30
0.0
 40
0.2201086343346104
  0
ARC
  5
16B36
330
1F
100
AcDbEntity
  8
0
100
AcDbCircle
 10
-78.42477173340913
 20
-187.2594150804955
 30
0.0
 40
0.2962443523127027
100
AcDbArc
 50
28.58990710681076
 51
151.4100928931837
  0
ARC
  5
16B37
330
1F
100
AcDbEntity
  8
0
100
AcDbCircle
 10
-78.67970877093317
 20
-187.1204771475818
 30
0.0
 40
0.0059055118110237
100
AcDbArc
 50
151.4100928931819
 51
233.9135464710308
  0
LINE
  5
16B38
330
1F
100
AcDbEntity
  8
0
100
AcDbLine
 10
-78.60462278232418
 20
-187.1825112378807
 30
0.0
 11
-78.68318714873288
 21
-187.1252495639124
 31
0.0
  0
ARC
  5
16B39
330
1F
100
AcDbEntity
  8
0
100
AcDbCircle
 10
-78.60114440452448
 20
-187.1777388215501
 30
0.0
 40
0.0059055118110236
100
AcDbArc
 50
233.9135464710308
 51
328.3624242325767
  0
ARC
  5
16B3A
330
1F
100
AcDbEntity
  8
0
100
AcDbCircle
 10
-78.42477173340913
 20
-187.2864035239387
 30
0.0
 40
0.2012546597025611
100
AcDbArc
 50
31.93765233635782
 51
148.3624242325875
  0
ARC
  5
16B3B
330
1F
100
AcDbEntity
  8
0
100
AcDbCircle
 10
-78.24897059086783
 20
-187.1768165952349
 30
0.0
 40
0.0059055118110236
100
AcDbArc
 50
211.9376523363751
 51
305.4483149829702
  0
LINE
  5
16B3C
330
1F
100
AcDbEntity
  8
0
100
AcDbLine
 10
-78.16640968607806
 20
-187.1252880079592
 30
0.0
 11
-78.24554558106078
 21
-187.1816274556124
 31
0.0
  0
ARC
  5
16B3D
330
1F
100
AcDbEntity
  8
0
100
AcDbCircle
 10
-78.1698346958851
 20
-187.1204771475818
 30
0.0
 40
0.0059055118110238
100
AcDbArc
 50
305.4483149829467
 51
28.58990710681803
  0
CIRCLE
  5
16B3E
330
1F
100
AcDbEntity
  8
0
100
AcDbCircle
 10
-78.42477173340913
 20
-187.3706510431434
 30
0.0
 40
0.2244094488189007
  0
CIRCLE
  5
16B3F
330
1F
100
AcDbEntity
  8
0
100
AcDbCircle
 10
-78.42477173340913
 20
-187.2850211218835
 30
0.0
 40
0.3602362204724459
  0
CIRCLE
  5
16B40
330
1F
100
AcDbEntity
  8
0
100
AcDbCircle
 10
-78.42477173340913
 20
-187.2850211218835
 30
0.0
 40
0.3927165354330763
  0
CIRCLE
  5
16B41
330
1F
100
AcDbEntity
  8
0
100
AcDbCircle
 10
-75.01173137907855
 20
-190.1739591140096
 30
0.0
 40
0.1713503473494116
  0
CIRCLE
  5
16B42
330
1F
100
AcDbEntity
  8
0
100
AcDbCircle
 10
-77.12014673340917
 20
-189.1898055707025
 30
0.0
 40
0.171350347349412
  0
CIRCLE
  5
16B43
330
1F
100
AcDbEntity
  8
0
100
AcDbCircle
 10
-77.12014673340893
 20
-190.1739591140095
 30
0.0
 40
0.1713503473494121
  0
CIRCLE
  5
16B44
330
1F
100
AcDbEntity
  8
0
100
AcDbCircle
 10
-75.01099319010219
 20
-189.1898055707025
 30
0.0
 40
0.1713503473494118
  0
LINE
  5
16B45
330
1F
100
AcDbEntity
  8
0
100
AcDbLine
 10
-69.73001878065358
 20
-192.205257342356
 30
0.0
 11
-69.73001878065358
 21
-192.1566313581039
 31
0.0
  0
LINE
  5
16B46
330
1F
100
AcDbEntity
  8
0
100
AcDbLine
 10
-69.73001878065364
 20
-185.2370073423559
 30
0.0
 11
-69.73001878065364
 21
-185.1861313581038
 31
0.0
  0
LINE
  5
16B47
330
1F
100
AcDbEntity
  8
0
100
AcDbLine
 10
-69.5890246861654
 20
-192.205257342356
 30
0.0
 11
-69.5890246861654
 21
-192.1566313581039
 31
0.0
  0
LINE
  5
16B48
330
1F
100
AcDbEntity
  8
0
100
AcDbLine
 10
-69.58902468616546
 20
-185.2370073423559
 30
0.0
 11
-69.58902468616546
 21
-185.1861313581038
 31
0.0
  0
LINE
  5
16B49
330
1F
100
AcDbEntity
  8
0
100
AcDbLine
 10
-69.52583005152966
 20
-184.90281442897
 30
0.0
 11
-69.52583005152966
 21
-184.9048813581039
 31
0.0
  0
LINE
  5
16B4A
330
1F
100
AcDbEntity
  8
0
100
AcDbLine
 10
-69.79321341528984
 20
-184.9028144289701
 30
0.0
 11
-69.79321341528984
 21
-184.9048813581039
 31
0.0
  0
ARC
  5
16B4B
330
1F
100
AcDbEntity
  8
0
100
AcDbCircle
 10
-69.55535761058479
 20
-184.90281442897
 30
0.0
 40
0.0295275590551178
100
AcDbArc
 50
0.0
 51
41.0866768691859
  0
ARC
  5
16B4C
330
1F
100
AcDbEntity
  8
0
100
AcDbCircle
 10
-69.76368585623473
 20
-184.9028144289701
 30
0.0
 40
0.0295275590551184
100
AcDbArc
 50
138.9133231307918
 51
180.0
  0
LINE
  5
16B4D
330
1F
100
AcDbEntity
  8
0
100
AcDbLine
 10
-69.12256080884849
 20
-197.0790939565293
 30
0.0
 11
-68.81652173340964
 21
-197.0790939565293
 31
0.0
  0
LINE
  5
16B4E
330
1F
100
AcDbEntity
  8
0
100
AcDbLine
 10
-68.81652173340964
 20
-197.1728439565293
 30
0.0
 11
-69.14802173340949
 21
-197.1728439565293
 31
0.0
  0
LINE
  5
16B4F
330
1F
100
AcDbEntity
  8
0
100
AcDbLine
 10
-69.14802173340949
 20
-197.1728439565293
 30
0.0
 11
-69.14802173340949
 21
-197.0790939565293
 31
0.0
  0
DIMENSION
  5
16B69
330
1F
100
AcDbEntity
  8
Dim
100
AcDbDimension
  2
*D2
 10
-23.29091139014676
 20
-156.16224511762
 30
0.0
 11
-15.77825784578715
 21
-156.16224511762
 31
0.0
 70
   160
  1
<> MINIMUM\PROUGH OPENING\PDEPTH
 71
     5
 42
16.75306299211861
 73
     0
 74
     0
 75
     0
  3
Standard
100
AcDbAlignedDimension
 13
-6.537848398028145
 23
-161.8709675707213
 33
0.0
 14
-23.29091139014676
 24
-161.0619659911083
 34
0.0
100
AcDbRotatedDimension
  0
DIMENSION
  5
16B6A
330
1F
100
AcDbEntity
  8
Dim
100
AcDbDimension
  2
*D3
 10
-0.5202725310032727
 20
-178.7252945211867
 30
0.0
 11
-0.5202725310032435
 21
-169.5518540489945
 31
0.0
 70
   160
  1
<>\PROUGH OPENING
 71
     5
 42
17.24845460138167
 73
     0
 74
     0
 75
     0
  3
Standard
100
AcDbAlignedDimension
 13
-20.91119598465281
 23
-161.4768399198051
 33
0.0
 14
-20.90602925664132
 24
-178.7252945211867
 34
0.0
 50
90.0
100
AcDbRotatedDimension
  0
DIMENSION
  5
16B99
330
1F
100
AcDbEntity
  8
Dim
100
AcDbDimension
  2
*D4
 10
-50.49676316500825
 20
-179.0598792315218
 30
0.0
 11
-50.49676316500821
 21
-169.712108486743
 31
0.0
 70
   160
  1
<>\PACTUAL
 71
     5
 42
17.99999985457833
 73
     0
 74
     0
 75
     0
  3
Standard
100
AcDbAlignedDimension
 13
-46.16801492895516
 23
-161.0598793769434
 33
0.0
 14
-46.17679392122094
 24
-179.0598792315218
 34
0.0
 50
90.0
100
AcDbRotatedDimension
  0
DIMENSION
  5
16B9A
330
1F
100
AcDbEntity
  8
Dim
100
AcDbDimension
  2
*D5
 10
-28.67168043393767
 20
-156.4275020356923
 30
0.0
 11
-37.41947775167685
 21
-156.4275020356923
 31
0.0
 70
   160
  1
<> ACTUAL
 71
     5
 42
17.49559463547835
 73
     0
 74
     0
 75
     0
  3
Standard
100
AcDbAlignedDimension
 13
-46.16727506941602
 23
-161.0598828059054
 33
0.0
 14
-28.67168043393767
 24
-161.0598828059054
 34
0.0
100
AcDbRotatedDimension
  0
DIMENSION
  5
16B9B
330
1F
100
AcDbEntity
  8
Dim
100
AcDbDimension
  2
*D6
 10
-29.17242029347679
 20
-159.2366109768462
 30
0.0
 11
-37.29484768144641
 21
-159.2366109768462
 31
0.0
 70
   160
  1
<> ROUGH OPENING
 71
     5
 42
16.24485477593923
 73
     0
 74
     0
 75
     0
  3
Standard
100
AcDbAlignedDimension
 13
-45.41727506941602
 23
-161.0598792499013
 33
0.0
 14
-29.17242029347679
 24
-161.0598715130849
 34
0.0
100
AcDbRotatedDimension
  0
ENDSEC
  0
SECTION
  2
OBJECTS
  0
DICTIONARY
  5
C
330
0
100
AcDbDictionary
281
     1
  3
ACAD_COLOR
350
6616
  3
ACAD_GROUP
350
D
  3
ACAD_IMAGE_DICT
350
74D5
  3
ACAD_IMAGE_VARS
350
74D7
  3
ACAD_LAYOUT
350
1A
  3
ACAD_MATERIAL
350
6601
  3
ACAD_MLINESTYLE
350
17
  3
ACAD_PLOTSETTINGS
350
19
  3
ACAD_PLOTSTYLENAME
350
E
  3
ACAD_TABLESTYLE
350
6617
  3
ACAD_VISUALSTYLE
350
6605
  3
AcDbVariableDictionary
350
6620
  3
ASE_INDEX_DICTIONARY
350
1EB4
  0
IMAGEDEF_REACTOR
  5
15322
330
15321
100
AcDbRasterImageDefReactor
 90
        2
330
15321
  0
DICTIONARY
  5
6616
102
{ACAD_REACTORS
330
C
102
}
330
C
100
AcDbDictionary
281
     1
  0
DICTIONARY
  5
D
102
{ACAD_REACTORS
330
C
102
}
330
C
100
AcDbDictionary
281
     1
  0
DICTIONARY
  5
74D5
102
{ACAD_REACTORS
330
C
102
}
330
C
100
AcDbDictionary
281
     1
  3
ppu 2005 logo bw
350
74D6
  0
RASTERVARIABLES
  5
74D7
102
{ACAD_REACTORS
330
C
102
}
330
C
100
AcDbRasterVariables
 90
        0
 70
     1
 71
     1
 72
     5
  0
DICTIONARY
  5
1A
102
{ACAD_REACTORS
330
C
102
}
330
C
100
AcDbDictionary
281
     1
  3
Layout1
350
1E
  3
Layout2
350
26
  3
Model
350
22
  0
DICTIONARY
  5
6601
102
{ACAD_REACTORS
330
C
102
}
330
C
100
AcDbDictionary
281
     1
  3
ByBlock
350
6603
  3
ByLayer
350
6602
  3
Global
350
6604
  0
DICTIONARY
  5
17
102
{ACAD_REACTORS
330
C
102
}
330
C
100
AcDbDictionary
281
     1
  3
Standard
350
18
  0
DICTIONARY
  5
19
102
{ACAD_REACTORS
330
C
102
}
330
C
100
AcDbDictionary
281
     1
  0
ACDBDICTIONARYWDFLT
  5
E
102
{ACAD_REACTORS
330
C
102
}
330
C
100
AcDbDictionary
281
     1
  3
Normal
350
F
100
AcDbDictionaryWithDefault
340
F
  0
DICTIONARY
  5
6617
102
{ACAD_REACTORS
330
C
102
}
330
C
100
AcDbDictionary
281
     1
  3
Standard
350
6618
  0
DICTIONARY
  5
6605
102
{ACAD_REACTORS
330
C
102
}
330
C
100
AcDbDictionary
281
     1
  3
2dWireframe
350
660B
  3
3D Hidden
350
660D
  3
3dWireframe
350
660C
  3
Basic
350
660A
  3
Brighten
350
6611
  3
ColorChange
350
6615
  3
Conceptual
350
660E
  3
Dim
350
6610
  3
Facepattern
350
6614
  3
Flat
350
6606
  3
FlatWithEdges
350
6607
  3
Gouraud
350
6608
  3
GouraudWithEdges
350
6609
  3
Linepattern
350
6613
  3
Realistic
350
660F
  3
Thicken
350
6612
  0
DICTIONARY
  5
6620
102
{ACAD_REACTORS
330
C
102
}
330
C
100
AcDbDictionary
281
     1
  3
CTABLESTYLE
350
6621
  0
DICTIONARY
  5
1EB4
102
{ACAD_REACTORS
330
C
102
}
330
C
100
AcDbDictionary
281
     1
  3
ASEBlockHierarchyIndexRecord
350
1EB6
1001
DCO15
1040
1547263965.927
  0
IMAGEDEF
  5
74D6
102
{ACAD_REACTORS
330
74D5
330
15322
102
}
330
74D5
100
AcDbRasterImageDef
 90
        0
  1
M:\LOGOS\ppu 2005 logo bw.jpg
 10
818.0
 20
219.0
 11
0.0846666666666667
 21
0.0846666666666667
280
     1
281
     5
  0
LAYOUT
  5
1E
102
{ACAD_REACTORS
330
1A
102
}
330
1A
100
AcDbPlotSettings
  1

  2
C:\Program Files\ACAD2000\plotters\HP4000 4th Floor East.pc3
  4

  6

 40
0.0
 41
0.0
 42
0.0
 43
0.0
 44
0.0
 45
0.0
 46
0.0
 47
0.0
 48
0.0
 49
0.0
140
0.0
141
0.0
142
1.0
143
1.0
 70
   688
 72
     0
 73
     0
 74
     5
  7

 75
    16
147
1.0
 76
     0
 77
     2
 78
   300
148
0.0
149
0.0
100
AcDbLayout
  1
Layout1
 70
     1
 71
     1
 10
0.0
 20
0.0
 11
12.0
 21
9.0
 12
0.0
 22
0.0
 32
0.0
 14
1.060083400546096
 24
0.8100833479813704
 34
0.0
 15
9.540750604914867
 25
7.290750131832332
 35
0.0
146
0.0
 13
0.0
 23
0.0
 33
0.0
 16
1.0
 26
0.0
 36
0.0
 17
0.0
 27
1.0
 37
0.0
 76
     0
330
1B
  0
LAYOUT
  5
26
102
{ACAD_REACTORS
330
1A
102
}
330
1A
100
AcDbPlotSettings
  1

  2
C:\Program Files\ACAD2000\plotters\HP4000 4th Floor East.pc3
  4

  6

 40
0.0
 41
0.0
 42
0.0
 43
0.0
 44
0.0
 45
0.0
 46
0.0
 47
0.0
 48
0.0
 49
0.0
140
0.0
141
0.0
142
1.0
143
1.0
 70
   688
 72
     0
 73
     0
 74
     5
  7

 75
    16
147
1.0
 76
     0
 77
     2
 78
   300
148
0.0
149
0.0
100
AcDbLayout
  1
Layout2
 70
     1
 71
     2
 10
0.0
 20
0.0
 11
12.0
 21
9.0
 12
0.0
 22
0.0
 32
0.0
 14
0.0
 24
0.0
 34
0.0
 15
0.0
 25
0.0
 35
0.0
146
0.0
 13
0.0
 23
0.0
 33
0.0
 16
1.0
 26
0.0
 36
0.0
 17
0.0
 27
1.0
 37
0.0
 76
     0
330
23
  0
LAYOUT
  5
22
102
{ACAD_REACTORS
330
1A
102
}
330
1A
100
AcDbPlotSettings
  1

  2
\\grant\Engineering Office 5550 PCL
  4
Letter
  6

 40
4.233333110809326
 41
4.233341693878173
 42
4.233322143554687
 43
4.23333740234375
 44
215.8999938964844
 45
279.3999938964844
 46
0.0
 47
1.273971065334848
 48
0.0
 49
0.0
140
0.0
141
0.0
142
1.0
143
13.12693927042086
 70
 11956
 72
     0
 73
     1
 74
     1
  7

 75
     0
147
0.076179220410756
 76
     0
 77
     2
 78
   300
148
2702.567571161281
149
2375.078738412507
100
AcDbLayout
  1
Model
 70
     1
 71
     0
 10
0.0
 20
0.0
 11
12.0
 21
9.0
 12
0.0
 22
0.0
 32
0.0
 14
0.0
 24
0.0
 34
0.0
 15
0.0
 25
0.0
 35
0.0
146
0.0
 13
0.0
 23
0.0
 33
0.0
 16
1.0
 26
0.0
 36
0.0
 17
0.0
 27
1.0
 37
0.0
 76
     0
330
1F
331
65FF
1001
ACAD_PSEXT
1000
\\grant\Engineering Office 5550 PCL
1000
HP Color LaserJet 5550 PCL 6
1000
Engineering
1000

1070
     0
  0
MATERIAL
  5
6603
102
{ACAD_REACTORS
330
6601
102
}
330
6601
100
AcDbMaterial
  1
ByBlock
  0
MATERIAL
  5
6602
102
{ACAD_REACTORS
330
6601
102
}
330
6601
100
AcDbMaterial
  1
ByLayer
  0
MATERIAL
  5
6604
102
{ACAD_REACTORS
330
6601
102
}
330
6601
100
AcDbMaterial
  1
Global
  0
MLINESTYLE
  5
18
102
{ACAD_REACTORS
330
17
102
}
330
17
100
AcDbMlineStyle
  2
STANDARD
 70
     0
  3

 62
   256
 51
90.0
 52
90.0
 71
     2
 49
0.5
 62
   256
  6
BYLAYER
 49
-0.5
 62
   256
  6
BYLAYER
  0
ACDBPLACEHOLDER
  5
F
102
{ACAD_REACTORS
330
E
102
}
330
E
  0
TABLESTYLE
  5
6618
102
{ACAD_REACTORS
330
6617
102
}
330
6617
100
AcDbTableStyle
  3
Standard
 70
     0
 71
     0
 40
0.06
 41
0.06
280
     0
281
     0
  7
Standard
140
0.18
170
     2
 62
     0
 63
     7
283
     0
 90
      512
 91
        0
  1

274
    -2
284
     1
 64
     0
275
    -2
285
     1
 65
     0
276
    -2
286
     1
 66
     0
277
    -2
287
     1
 67
     0
278
    -2
288
     1
 68
     0
279
    -2
289
     1
 69
     0
  7
Standard
140
0.25
170
     5
 62
     0
 63
     7
283
     0
 90
      512
 91
        0
  1

274
    -2
284
     1
 64
     0
275
    -2
285
     1
 65
     0
276
    -2
286
     1
 66
     0
277
    -2
287
     1
 67
     0
278
    -2
288
     1
 68
     0
279
    -2
289
     1
 69
     0
  7
Standard
140
0.18
170
     5
 62
     0
 63
     7
283
     0
 90
      512
 91
        0
  1

274
    -2
284
     1
 64
     0
275
    -2
285
     1
 65
     0
276
    -2
286
     1
 66
     0
277
    -2
287
     1
 67
     0
278
    -2
288
     1
 68
     0
279
    -2
289
     1
 69
     0
  0
VISUALSTYLE
  5
660B
102
{ACAD_REACTORS
330
6605
102
}
330
6605
100
AcDbVisualStyle
  2
2dWireframe
 70
     4
 71
     0
 72
     2
 73
     0
 90
        0
 40
-0.6
 41
-30.0
 62
     5
 63
     7
421
 16777215
 74
     1
 91
        4
 64
     7
 65
   257
 75
     1
175
     1
 42
1.0
 92
        0
 66
   257
 43
1.0
 76
     1
 77
     6
 78
     2
 67
     7
 79
     5
170
     0
171
     0
290
     0
174
     0
 93
        1
 44
0.0
173
     0
291
     0
 45
0.0
  0
VISUALSTYLE
  5
660D
102
{ACAD_REACTORS
330
6605
102
}
330
6605
100
AcDbVisualStyle
  2
3D Hidden
 70
     6
 71
     1
 72
     2
 73
     2
 90
        0
 40
-0.6
 41
-30.0
 62
     5
 63
     7
421
 16777215
 74
     2
 91
        2
 64
     7
 65
   257
 75
     2
175
     1
 42
40.0
 92
        0
 66
   257
 43
1.0
 76
     1
 77
     6
 78
     2
 67
     7
 79
     3
170
     0
171
     0
290
     0
174
     0
 93
        1
 44
0.0
173
     0
291
     0
 45
0.0
  0
VISUALSTYLE
  5
660C
102
{ACAD_REACTORS
330
6605
102
}
330
6605
100
AcDbVisualStyle
  2
3dWireframe
 70
     5
 71
     0
 72
     2
 73
     0
 90
        0
 40
-0.6
 41
-30.0
 62
     5
 63
     7
421
 16777215
 74
     1
 91
        4
 64
     7
 65
   257
 75
     1
175
     1
 42
1.0
 92
        0
 66
   257
 43
1.0
 76
     1
 77
     6
 78
     2
 67
     7
 79
     5
170
     0
171
     0
290
     0
174
     0
 93
        1
 44
0.0
173
     0
291
     0
 45
0.0
  0
VISUALSTYLE
  5
660A
102
{ACAD_REACTORS
330
6605
102
}
330
6605
100
AcDbVisualStyle
  2
Basic
 70
     7
 71
     1
 72
     0
 73
     1
 90
        0
 40
-0.6
 41
-30.0
 62
     5
 63
     7
421
 16777215
 74
     0
 91
        4
 64
     7
 65
   257
 75
     1
175
     1
 42
1.0
 92
        8
 66
     7
 43
1.0
 76
     1
 77
     6
 78
     2
 67
     7
 79
     5
170
     0
171
     0
290
     0
174
     0
 93
        1
 44
0.0
173
     0
291
     1
 45
0.0
  0
VISUALSTYLE
  5
6611
102
{ACAD_REACTORS
330
6605
102
}
330
6605
100
AcDbVisualStyle
  2
Brighten
 70
    12
 71
     2
 72
     2
 73
     0
 90
        0
 40
-0.6
 41
-30.0
 62
     5
 63
     7
421
 16777215
 74
     1
 91
        4
 64
     7
 65
   257
 75
     1
175
     1
 42
1.0
 92
        8
 66
     7
 43
1.0
 76
     1
 77
     6
 78
     2
 67
     7
 79
     5
170
     0
171
     0
290
     0
174
     0
 93
        1
 44
50.0
173
     0
291
     1
 45
0.0
  0
VISUALSTYLE
  5
6615
102
{ACAD_REACTORS
330
6605
102
}
330
6605
100
AcDbVisualStyle
  2
ColorChange
 70
    16
 71
     2
 72
     2
 73
     3
 90
        0
 40
-0.6
 41
-30.0
 62
     5
 63
     8
421
  8421504
 74
     1
 91
        4
 64
     7
 65
   257
 75
     1
175
     1
 42
1.0
 92
        8
 66
     8
424
  8421504
 43
1.0
 76
     1
 77
     6
 78
     2
 67
     7
 79
     5
170
     0
171
     0
290
     0
174
     0
 93
        1
 44
0.0
173
     0
291
     1
 45
0.0
  0
VISUALSTYLE
  5
660E
102
{ACAD_REACTORS
330
6605
102
}
330
6605
100
AcDbVisualStyle
  2
Conceptual
 70
     9
 71
     3
 72
     2
 73
     0
 90
        0
 40
-0.6
 41
-30.0
 62
     5
 63
     7
421
 16777215
 74
     2
 91
        2
 64
     7
 65
   257
 75
     1
175
     1
 42
40.0
 92
        8
 66
     7
 43
1.0
 76
     1
 77
     6
 78
     2
 67
     7
 79
     3
170
     0
171
     0
290
     0
174
     0
 93
        1
 44
0.0
173
     0
291
     0
 45
0.0
  0
VISUALSTYLE
  5
6610
102
{ACAD_REACTORS
330
6605
102
}
330
6605
100
AcDbVisualStyle
  2
Dim
 70
    11
 71
     2
 72
     2
 73
     0
 90
        0
 40
-0.6
 41
-30.0
 62
     5
 63
     7
421
 16777215
 74
     1
 91
        4
 64
     7
 65
   257
 75
     1
175
     1
 42
1.0
 92
        8
 66
     7
 43
1.0
 76
     1
 77
     6
 78
     2
 67
     7
 79
     5
170
     0
171
     0
290
     0
174
     0
 93
        1
 44
-50.0
173
     0
291
     1
 45
0.0
  0
VISUALSTYLE
  5
6614
102
{ACAD_REACTORS
330
6605
102
}
330
6605
100
AcDbVisualStyle
  2
Facepattern
 70
    15
 71
     2
 72
     2
 73
     0
 90
        0
 40
-0.6
 41
-30.0
 62
     5
 63
     7
421
 16777215
 74
     1
 91
        4
 64
     7
 65
   257
 75
     1
175
     1
 42
1.0
 92
        8
 66
     7
 43
1.0
 76
     1
 77
     6
 78
     2
 67
     7
 79
     5
170
     0
171
     0
290
     0
174
     0
 93
        1
 44
0.0
173
     0
291
     1
 45
0.0
  0
VISUALSTYLE
  5
6606
102
{ACAD_REACTORS
330
6605
102
}
330
6605
100
AcDbVisualStyle
  2
Flat
 70
     0
 71
     2
 72
     1
 73
     1
 90
        2
 40
-0.6
 41
30.0
 62
     5
 63
     7
421
 16777215
 74
     0
 91
        4
 64
     7
 65
   257
 75
     1
175
     1
 42
1.0
 92
        8
 66
     7
 43
1.0
 76
     1
 77
     6
 78
     2
 67
     7
 79
     5
170
     0
171
     0
290
     0
174
     0
 93
       13
 44
0.0
173
     0
291
     1
 45
0.0
  0
VISUALSTYLE
  5
6607
102
{ACAD_REACTORS
330
6605
102
}
330
6605
100
AcDbVisualStyle
  2
FlatWithEdges
 70
     1
 71
     2
 72
     1
 73
     1
 90
        2
 40
-0.6
 41
30.0
 62
     5
 63
     7
421
 16777215
 74
     1
 91
        4
 64
     7
 65
   257
 75
     1
175
     1
 42
1.0
 92
        0
 66
   257
 43
1.0
 76
     1
 77
     6
 78
     2
 67
     7
 79
     5
170
     0
171
     0
290
     0
174
     0
 93
       13
 44
0.0
173
     0
291
     1
 45
0.0
  0
VISUALSTYLE
  5
6608
102
{ACAD_REACTORS
330
6605
102
}
330
6605
100
AcDbVisualStyle
  2
Gouraud
 70
     2
 71
     2
 72
     2
 73
     1
 90
        2
 40
-0.6
 41
30.0
 62
     5
 63
     7
421
 16777215
 74
     0
 91
        4
 64
     7
 65
   257
 75
     1
175
     1
 42
1.0
 92
        0
 66
     7
 43
1.0
 76
     1
 77
     6
 78
     2
 67
     7
 79
     5
170
     0
171
     0
290
     0
174
     0
 93
       13
 44
0.0
173
     0
291
     1
 45
0.0
  0
VISUALSTYLE
  5
6609
102
{ACAD_REACTORS
330
6605
102
}
330
6605
100
AcDbVisualStyle
  2
GouraudWithEdges
 70
     3
 71
     2
 72
     2
 73
     1
 90
        2
 40
-0.6
 41
30.0
 62
     5
 63
     7
421
 16777215
 74
     1
 91
        4
 64
     7
 65
   257
 75
     1
175
     1
 42
1.0
 92
        0
 66
   257
 43
1.0
 76
     1
 77
     6
 78
     2
 67
     7
 79
     5
170
     0
171
     0
290
     0
174
     0
 93
       13
 44
0.0
173
     0
291
     1
 45
0.0
  0
VISUALSTYLE
  5
6613
102
{ACAD_REACTORS
330
6605
102
}
330
6605
100
AcDbVisualStyle
  2
Linepattern
 70
    14
 71
     2
 72
     2
 73
     0
 90
        0
 40
-0.6
 41
-30.0
 62
     5
 63
     7
421
 16777215
 74
     1
 91
        4
 64
     7
 65
   257
 75
     7
175
     7
 42
1.0
 92
        8
 66
     7
 43
1.0
 76
     1
 77
     6
 78
     2
 67
     7
 79
     5
170
     0
171
     0
290
     0
174
     0
 93
        1
 44
0.0
173
     0
291
     1
 45
0.0
  0
VISUALSTYLE
  5
660F
102
{ACAD_REACTORS
330
6605
102
}
330
6605
100
AcDbVisualStyle
  2
Realistic
 70
     8
 71
     2
 72
     2
 73
     0
 90
        0
 40
-0.6
 41
-30.0
 62
     5
 63
     7
421
 16777215
 74
     1
 91
        0
 64
     7
 65
   257
 75
     1
175
     1
 42
1.0
 92
        8
 66
     8
424
  7895160
 43
1.0
 76
     1
 77
     6
 78
     2
 67
     7
 79
     5
170
     0
171
     0
290
     0
174
     0
 93
       13
 44
0.0
173
     0
291
     0
 45
0.0
  0
VISUALSTYLE
  5
6612
102
{ACAD_REACTORS
330
6605
102
}
330
6605
100
AcDbVisualStyle
  2
Thicken
 70
    13
 71
     2
 72
     2
 73
     0
 90
        0
 40
-0.6
 41
-30.0
 62
     5
 63
     7
421
 16777215
 74
     1
 91
        4
 64
     7
 65
   257
 75
     1
175
     1
 42
1.0
 92
       12
 66
     7
 43
1.0
 76
     1
 77
     6
 78
     2
 67
     7
 79
     5
170
     0
171
     0
290
     0
174
     0
 93
        1
 44
0.0
173
     0
291
     1
 45
0.0
  0
DICTIONARYVAR
  5
6621
102
{ACAD_REACTORS
330
6620
102
}
330
6620
100
DictionaryVariables
280
     0
  1
STANDARD
  0
XRECORD
  5
1EB6
102
{ACAD_REACTORS
330
1EB4
102
}
330
1EB4
100
AcDbXrecord
280
     1
330
0
330
0
330
0
330
0
  0
ENDSEC
  0
EOF
